Вы используете незарегистрированную версию компонента "Вкладки"!

Поиск

(Avant-Garde / Free Improvisation) Roscoe Mitchell - The Solo Concert - 2009, APE (image+.cue), lossless

(Avant-Garde / Free Improvisation) Roscoe Mitchell - The Solo Concert - 2009, APE (image+.cue), lossless
Треклист:
Roscoe Mitchell - The Solo Concer
Жанр: Avant-Garde / Free Improvisation
Год выпуска диска: 2009
Производитель диска: Aeco
Аудио кодек: APE
Тип рипа: image+.cue
Битрейт аудио: lossless
Продолжительность: 41:17
Трэклист:
Nonaah Roscoe Mitchell 1:24
Tutankamen Favors 7:03
Enlorfe Roscoe Mitchell 3:00
Jibbana Roscoe Mitchell 4:55
Eeltwo, Pt.1 Roscoe Mitchell 2:57
Eeltwo, Pt.2 Roscoe Mitchell 6:27
Oobina (Little Big Horn) Roscoe Mitchell 4:41
Ttum Roscoe Mitchell 9:09
Nonaah 1:35
Доп. информация:
 
Отчёт EAC
Exact Audio Copy V0.99 prebeta 4 from 23. January 2008
EAC extraction logfile from 27. December 2009, 11:02
Roscoe Mitchell / The Solo Concert
Used drive : _NEC CD-RW NR-9500B Adapter: 3 ID: 0
Read mode : Secure
Utilize accurate stream : Yes
Defeat audio cache : Yes
Make use of C2 pointers : No
Read offset correction : 145
Overread into Lead-In and Lead-Out : No
Fill up missing offset samples with silence : Yes
Delete leading and trailing silent blocks : No
Null samples used in CRC calculations : No
Used interface : Native Win32 interface for Win NT & 2000
Used output format : Internal WAV Routines
Sample format : 44.100 Hz; 16 Bit; Stereo
TOC of the extracted CD
Track | Start | Length | Start sector | End sector
---------------------------------------------------------
1 | 0:00.00 | 1:24.40 | 0 | 6339
2 | 1:24.40 | 7:03.51 | 6340 | 38115
3 | 8:28.16 | 3:00.74 | 38116 | 51689
4 | 11:29.15 | 4:55.07 | 51690 | 73821
5 | 16:24.22 | 2:57.19 | 73822 | 87115
6 | 19:21.41 | 6:27.59 | 87116 | 116199
7 | 25:49.25 | 4:41.15 | 116200 | 137289
8 | 30:30.40 | 9:09.47 | 137290 | 178511
9 | 39:40.12 | 1:35.05 | 178512 | 185641
Range status and errors
Selected range
Filename D:\Music\Roscoe Mitchell - The Solo Concert.wav
Peak level 100.0 %
Range quality 99.9 %
Copy CRC 1537BCF8
Copy OK
No errors occurred
AccurateRip summary
Track 1 accurately ripped (confidence 1) [168D4E10]
Track 2 accurately ripped (confidence 1) [22DF5231]
Track 3 accurately ripped (confidence 1) [687BADCD]
Track 4 accurately ripped (confidence 1) [A07C1309]
Track 5 accurately ripped (confidence 1) [0DC95A89]
Track 6 accurately ripped (confidence 1) [BFA44BAF]
Track 7 accurately ripped (confidence 1) [73CA4C0F]
Track 8 accurately ripped (confidence 1) [B79D9F49]
Track 9 accurately ripped (confidence 1) [F136988D]
All tracks accurately ripped
End of status report
Any questions -> support@pro-jazz.com. По всем вопросам пишите -> support@pro-jazz.com
17:42
135
Нет комментариев. Ваш будет первым!