Вы используете незарегистрированную версию компонента "Вкладки"!

Поиск

(Free Jazz) John Coltrane / Archie Shepp - New Thing At Newport - 1965, APE (image+.cue), lossless

Треклист:
John Coltrane / Archie Shepp - New Thing At Newport
Жанр: Free Jazz
Год выпуска диска: 1965
Производитель диска: Россия (лицензия)
Аудио кодек: APE
Тип рипа: image+.cue
Битрейт аудио: lossless
Продолжительность: 66:02
Лейбл: Impulse!
Трэклист:
1 Spoken Introduction to John Coltrane's set by Father Norman O'Connor
2 One Down, One Up
3 My Favorite Things/Spoken Conclusion to John Coltane's set by Father Norman O'Connor
4 Spoken Introduction to Archie Shepp's Set by Billy Taylor
5 Gingerbread, Gingerbread Boy
6 Call Me by My Rightful Name
7 Scag
8 Rufus (Swung His Face at Last to the Wind, Then His Neck Snapped)
9 Le Matin des Noire
Музыканты:
On tracks 2 and 3:
John Coltrane, soprano & tenor sax
McCoy Tyner, piano
Jimmy Garrison, bass
Elvin Jones, drums
On tracks 5-9:
Archie Shepp, tenor sax
Bobby Hutcherson, vibes
Barre Phillips, bass
Joe Chambers, drums
Доп. информация: собственный рип на замену теме без оффсета. К своим прилагаю сканы с оригинального диска из сети.
 
Отчёт EAC
Exact Audio Copy V0.99 prebeta 4 from 23. January 2008
Отчёт EAC об извлечении, выполненном 24. декабря 2009, 18:59
John Coltrane/Archie Shepp / New Thing At Newport
Дисковод: Optiarc DVD RW AD-7200A Adapter: 3 ID: 1
Режим чтения : Достоверность
Использование точного потока : Да
Отключение кэша аудио : Да
Использование указателей C2 : Нет
Коррекция смещения при чтении : 48
Способность читать области Lead-in и Lead-out : Нет
Заполнение пропущенных сэмплов тишиной : Да
Удаление блоков с тишиной в начале и конце : Нет
При вычислениях CRC использовались нулевые сэмплы : Да
Интерфейс : Встроенный Win32-интерфейс для Win NT/2000
Выходной формат : Внутренние WAV-операции
Формат сэмплов : 44.100 Гц; 16 бит; стерео
TOC извлечённого CD
Трек | Старт | Длительность | Начальный сектор | Конечный сектор
---------------------------------------------------------------------
1 | 0:00.00 | 1:08.17 | 0 | 5116
2 | 1:08.17 | 12:44.20 | 5117 | 62436
3 | 13:52.37 | 15:21.40 | 62437 | 131551
4 | 29:14.02 | 2:02.38 | 131552 | 140739
5 | 31:16.40 | 10:27.70 | 140740 | 187834
6 | 41:44.35 | 6:43.60 | 187835 | 218119
7 | 48:28.20 | 3:25.70 | 218120 | 233564
8 | 51:54.15 | 5:49.05 | 233565 | 259744
9 | 57:43.20 | 8:19.40 | 259745 | 297209
Характеристики диапазона извлечения и сообщения об ошибках
Выбранный диапазон
Имя файла E:\Up-Down\John Coltrane, Archie Shepp - New Thing At Newport\John Coltrane Archie Shepp - New Thing At Newport.wav
Пиковый уровень 100.0 %
Качество диапазона 100.0 %
CRC копии 6A18B27C
Копирование... OK
Ошибок не произошло
Конец отчёта
 
Audiochecker
AUDIOCHECKER v1.2 - by Dester - opdester@freemail.hu
~~~~~~~~~~~~~~~~~
1 -===- E:\Up-Down\John Coltrane, Archie Shepp - New Thing At Newport\John Coltrane Archie Shepp - New Thing At Newport.ape
Extracted successfully
Conclusion: This track looks like CDDA with probability 100%
 
Индексная карта
REM GENRE Jazz
REM DATE 1965
REM DISCID 790F7A09
REM COMMENT "ExactAudioCopy v0.99pb4"
PERFORMER "John Coltrane/Archie Shepp"
TITLE "New Thing At Newport"
FILE "John Coltrane Archie Shepp - New Thing At Newport.ape" WAVE
TRACK 01 AUDIO
TITLE "John Coltrane / Spoken Introduction To John Coltrane's Set By Father Norman O..."
PERFORMER "John Coltrane/Archie Shepp"
INDEX 01 00:00:00
TRACK 02 AUDIO
TITLE "John Coltrane / One Down, One Up"
PERFORMER "John Coltrane/Archie Shepp"
INDEX 01 01:08:17
TRACK 03 AUDIO
TITLE "John Coltrane / My Favorite Things"
PERFORMER "John Coltrane/Archie Shepp"
INDEX 01 13:52:37
TRACK 04 AUDIO
TITLE "Archie Shepp / Spoken Introduction To Archie Shepp's Set By Billy Taylor"
PERFORMER "John Coltrane/Archie Shepp"
INDEX 01 29:14:02
TRACK 05 AUDIO
TITLE "Archie Shepp / Gingerbread, Gingerbread Boy"
PERFORMER "John Coltrane/Archie Shepp"
INDEX 01 31:16:40
TRACK 06 AUDIO
TITLE "Archie Shepp / Call Me By My Rightful Name"
PERFORMER "John Coltrane/Archie Shepp"
INDEX 01 41:44:35
TRACK 07 AUDIO
TITLE "Archie Shepp / Scag"
PERFORMER "John Coltrane/Archie Shepp"
INDEX 01 48:28:20
TRACK 08 AUDIO
TITLE "Archie Shepp / Rufus... (swung his face at last to the wind, then his neck sn..."
PERFORMER "John Coltrane/Archie Shepp"
INDEX 01 51:54:15
TRACK 09 AUDIO
TITLE "Archie Shepp / Le Matin Des Noire"
PERFORMER "John Coltrane/Archie Shepp"
INDEX 01 57:43:20
 
Отчет CueTools
[CUETools log; Date: 13.03.2011 11:08:59; Version: 2.1.1]
[CTDB TOCID: jnFdY5jIqdrrdjC5a.DZO1Ayp.4-] disk not present in database.
[AccurateRip ID: 00177141-00abceed-790f7a09] found.
Track [ CRC ] Status
01 [f5c882b7] (00/20) No match
02 [0b8a2fb0] (00/20) No match
03 [52f2812d] (00/20) No match
04 [03b38a07] (00/20) No match
05 [d186cedc] (00/19) No match
06 [b35fae16] (00/19) No match
07 [376b1e8d] (00/20) No match
08 [5976f8e6] (00/19) No match
09 [e3cc5748] (00/19) No match
Offsetted by 664:
01 [7fa232b0] (08/20) Accurately ripped
02 [4c06dcb1] (08/20) Accurately ripped
03 [b389e4d1] (08/20) Accurately ripped
04 [c4f61eac] (08/20) Accurately ripped
05 [03b6fd1f] (08/19) Accurately ripped
06 [6e03ba5e] (07/19) Accurately ripped
07 [dc55e15d] (08/20) Accurately ripped
08 [1c427a56] (07/19) Accurately ripped
09 [19387298] (08/19) Accurately ripped
Offsetted by -1758:
01 [9aae018f] (00/20) No match but offset
02 [eeb4f38f] (09/20) Accurately ripped
03 [cc10eec8] (00/20) No match but offset
04 [75f9fb5c] (00/20) No match but offset
05 [e41cae81] (00/19) No match but offset
06 [4304035a] (00/19) No match but offset
07 [c4656300] (00/20) No match but offset
08 [b58fcb6b] (00/19) No match but offset
09 [bd7974f6] (00/19) No match but offset
Track Peak [ CRC32 ] [W/O NULL] [ LOG ]
-- 99,9 [6A18B27C] [6E5F3F69] CRC32
01 98,6 [6A82D4C6] [65D28E0F]
02 96,8 [042406AF] [185E52A2]
03 93,7 [D174644E] [A2DB2E5C]
04 39,9 [C102E2BE] [8E44BC61]
05 99,9 [01A5EB13] [5EB81D54]
06 87,1 [149CEA31] [39CECC2B]
07 90,6 [F0CD812D] [1B36C1CC]
08 99,9 [7DC80ADD] [9688F068]
09 97,0 [47DECABF] [0FEDBC80]
Any questions -> support@pro-jazz.com. По всем вопросам пишите -> support@pro-jazz.com
17:41
206
Нет комментариев. Ваш будет первым!