Вы используете незарегистрированную версию компонента "Вкладки"!

Поиск

(Free Jazz) Assif Tsahar, Mat Maneri, Jim Black: Jam (2003), APE (image+.cue), lossless

(Free Jazz) Assif Tsahar, Mat Maneri, Jim Black: Jam (2003), APE (image+.cue), lossless
Треклист:
Assif Tsahar, Mat Maneri, Jim Black: Jam
Жанр: Free Jazz
Год выпуска диска: 2003
Производитель диска: Hopscotch Records
Аудио кодек: APE
Тип рипа: image+.cue
Битрейт аудио: lossless
Трэклист:
1 Jam, Pt. 1 6:39
2 Jam, Pt. 2 4:56
3 Jam, Pt. 3 7:02
4 Jam, Pt. 4 6:06
5 Jam, Pt. 5 4:24
6 Jam, Pt. 6 5:41
7 Jam, Pt. 7 3:33
8 Jam, Pt. 8 5:10
9 Jam, Pt. 9 8:10
Доп. информация:
 
скрытый текст
The pairing of reedist Assif Tsahar, violinist Mat Maneri and the mesmerizing drummer Jim Black sounds like a recipe for fireworks and dynamic intensity, at least on paper. All three have a goodly amount of experience with this sort of loosely structured setting, although the trio itself has only played together on a handful of occasions. This limited playing time, as well as each musician's experiences might lead some to wonder whether they are in fact incongruent partners. What is surprising, then, is not only how well these three talents work together, but also how they manage to deliver this set of well-gelled jams. Another unexpected result is that while many of the tracks are crescendo-based movements of tension and eventual release, very few are agitated, burn the house down mélanges. Rather, they favor subdued space and texture explorations that retain a dark, brooding feel overall.
The nine movements of the "suite" initially commence with the band laying the concoction on pretty thick. Before Tsahar's sinewy tenor lines emerge, Maneri and Black crosscut their way around one another, laying down a jagged terrain for Tsahar's jaunts. Very seldom does groovemeister Black have the opportunity to lay down his trademark spry rhythms. Nevertheless, the fifth track explores rhythmic interplay among the members of the trio, with Black throwing in a few terse backbeats and mostly shuffling percussive twists as the others engage in their lively call and response. Ditto track six, although this time Tsahar's bass clarinet is the mechanism for group discovery.
While Tsahar became known as a full throttle explosive force, it seems that as of late, he is more concerned with exploring a measured approach—in particular, one of restraint and control. A good example of Tsahar's power management can be seen on the second track, where his bass clarinet moves murkily through the waters as Maneri and Black stir underneath. Similar tactics appear on the tenor-lead third track with Tsahar's muted, ribbony lines building over the course of the piece. Don't worry, though—the proceedings eventually erupt as the three jockey for position. Also intriguing is the fourth movement's dreary hush that insinuates an ominous tension. Indeed, it is a dark beauty that slips into the fore many times here and at last, leads us out during the final section of this encounter, eventually evolving to its final moments of collective power.
To some, the thought of a jam session might conjure up images of unrestrained, disorganized and possibly even monotonous self-indulgency. Fortunately, none of the aforementioned descriptions need apply here. Rather, JAM is an unexpected delight in its approach—resulting in a boon to fans of these major talents in creative improvised music.
 
Отчёт EAC
Exact Audio Copy V0.99 prebeta 4 from 23. January 2008
Отчёт EAC об извлечении, выполненном 11. апреля 2009, 16:36
Tsahar - Maneri - Black / Jam
Дисковод: TSSTcorpCDDVDW SH-S203D Adapter: 3 ID: 0
Режим чтения : Достоверность
Использование точного потока : Да
Отключение кэша аудио : Да
Использование указателей C2 : Нет
Коррекция смещения при чтении : 6
Способность читать области Lead-in и Lead-out : Нет
Заполнение пропущенных сэмплов тишиной : Да
Удаление блоков с тишиной в начале и конце : Нет
При вычислениях CRC использовались нулевые сэмплы : Да
Интерфейс : Установленный внешний ASPI-интерфейс
Выходной формат : Внутренние WAV-операции
Формат сэмплов : 44.100 Гц; 16 бит; стерео
TOC извлечённого CD
Трек | Старт | Длительность | Начальный сектор | Конечный сектор
---------------------------------------------------------------------
1 | 0:00.00 | 6:39.72 | 0 | 29996
2 | 6:39.72 | 4:56.60 | 29997 | 52256
3 | 11:36.57 | 7:02.33 | 52257 | 83939
4 | 18:39.15 | 6:06.59 | 83940 | 111448
5 | 24:45.74 | 4:24.34 | 111449 | 131282
6 | 29:10.33 | 5:41.03 | 131283 | 156860
7 | 34:51.36 | 3:33.43 | 156861 | 172878
8 | 38:25.04 | 5:10.48 | 172879 | 196176
9 | 43:35.52 | 8:10.74 | 196177 | 233000
Характеристики диапазона извлечения и сообщения об ошибках
Выбранный диапазон
Имя файла F:\My Music\TMP\TSAHAR\JAM\Tsahar - Maneri - Black - Jam.wav
Пиковый уровень 94.3 %
Качество диапазона 100.0 %
CRC копии C94C2D41
Копирование... OK
Ошибок не произошло
Конец отчёта
Any questions -> support@pro-jazz.com. По всем вопросам пишите -> support@pro-jazz.com
09:52
172
Нет комментариев. Ваш будет первым!