Вы используете незарегистрированную версию компонента "Вкладки"!

Поиск

(Free Jazz, Avant-Garde Jazz) Albert Ayler - In Greenwich Village - 1967, FLAC (tracks+.cue), lossless

Треклист:
Albert Ayler - In Greenwich Village
Жанр: Free Jazz, Avant-Garde Jazz
Дата записи: Dec 18, 1966,Feb 26, 1967
Дата выпуска: 1987
Производитель диска, страна: Impulse!, MCA Records
Страна исполнителя: USA
Тип: Live
Аудио кодек: FLAC
Тип рипа: (tracks + .cue)
Битрейт аудио: lossless
Включает: Full artwork
Продолжительность: 37:28
Источник: коллекция Л.Рендера
Риппер: Мой рип
Трэклист:
1. FOR JOHN COLTRANE
2. CHANGE HAS COME
3. TRUTH IS MARCHING IN
4. OUR PRAYER
Об исполнителе:
http://allmusic.com/cg/amg.dll?p=amg&sql=11:kifexqt5ld6e
Об альбоме:
http://allmusic.com/cg/amg.dll?p=amg&sql=10:3cfyxqe0ldte
Состав:
Albert Ayler - Sax (Alto), Sax (Tenor)
Donald Ayler - Trumpet
Bill Folwell - Bass
Joel Friedman - Cello
Henry Grimes - Bass
Beaver Harris - Drums
Michel Sampson - Violin
Alan Silva - Bass
Рейтинги и премии:
Allmusic - 4 of 5
Издания:
1967 Impulse! 9155
MCA 25865
2001 CD Import 9049
2003 CD BMG 5193
2007 CD Impulse! 9559
 
Несколько слов на английском - by Scott Yanow
During 1967-69 avant-garde innovator Albert Ayler recorded a series of albums for Impulse that started on a high level and gradually declined in quality. This LP, Ayler's first Impulse set, was probably his best for that label. There are two selections apiece from a pair of live appearances with Ayler having a rare outing on alto on the emotional "For John Coltrane" and the more violent "Change Has Come" while backed by cellist Joel Friedman, both Alan Silva and Bill Folwell on basses and drummer Beaver Harris. The other set (with trumpeter Donald Ayler, violinist Michel Sampson, Folwell and Henry Grimes on basses and Harris) has a strong contrast between the simple childlike melodies and the intense solos. However this LP (which was augmented later on by the two-LP set The Village Concerts) will be difficult to find.
 
CD scan
 
Back scan
 
EAC log
Exact Audio Copy V0.99 prebeta 4 from 23. January 2008
EAC extraction logfile from 10. April 2009, 12:05
Albert Ayler / In Greenwich Village
Used drive : PIONEER DVD-RW DVR-112D Adapter: 0 ID: 0
Read mode : Secure
Utilize accurate stream : Yes
Defeat audio cache : Yes
Make use of C2 pointers : No
Read offset correction : 48
Overread into Lead-In and Lead-Out : No
Fill up missing offset samples with silence : Yes
Delete leading and trailing silent blocks : No
Null samples used in CRC calculations : Yes
Used interface : Installed external ASPI interface
Gap handling : Appended to previous track
Used output format : User Defined Encoder
Selected bitrate : 320 kBit/s
Quality : High
Add ID3 tag : Yes
Command line compressor : C:\Program Files\Exact Audio Copy\Flac\flac.exe
Additional command line options : -V -8 -T "artist=%a" -T "title=%t" -T "album=%g" -T "date=%y" -T "tracknumber=%n" -T "genre=%m" %s
TOC of the extracted CD
Track | Start | Length | Start sector | End sector
---------------------------------------------------------
1 | 0:00.00 | 13:40.08 | 0 | 61507
2 | 13:40.08 | 6:25.05 | 61508 | 90387
3 | 20:05.13 | 12:39.52 | 90388 | 147364
4 | 32:44.65 | 4:43.73 | 147365 | 168662
Track 1
Filename D:\music\rip\Albert Ayler - In Greenwich Village (1987) {MCA Records}\01 - For John Coltrane.wav
Pre-gap length 0:00:02.00
Peak level 83.4 %
Track quality 100.0 %
Test CRC 75F62E21
Copy CRC 75F62E21
Track not present in AccurateRip database
Copy OK
Track 2
Filename D:\music\rip\Albert Ayler - In Greenwich Village (1987) {MCA Records}\02 - Change Has Come.wav
Pre-gap length 0:00:01.29
Peak level 85.2 %
Track quality 100.0 %
Test CRC 814404D4
Copy CRC 814404D4
Track not present in AccurateRip database
Copy OK
Track 3
Filename D:\music\rip\Albert Ayler - In Greenwich Village (1987) {MCA Records}\03 - Truth Is Marching In.wav
Pre-gap length 0:00:01.29
Peak level 66.9 %
Track quality 100.0 %
Test CRC 323A3155
Copy CRC 323A3155
Track not present in AccurateRip database
Copy OK
Track 4
Filename D:\music\rip\Albert Ayler - In Greenwich Village (1987) {MCA Records}\04 - Our Prayer.wav
Pre-gap length 0:00:01.45
Peak level 78.6 %
Track quality 100.0 %
Test CRC BA2F571E
Copy CRC BA2F571E
Track not present in AccurateRip database
Copy OK
None of the tracks are present in the AccurateRip database
No errors occurred
End of status report
 
Tau analiser
Я не сидирую все свои раздачи подолгу, только новые (до 3х первых сидов)
Предлагаю скачавшим максимально долго оставаться на раздаче - весь рейтинг будет ваш
Если нет сидов или раздача находится в архиве, пришлите письмо, и я вернусь
Заботьтесь о своем рейтинге - приветствуется конвертация моих раздач в мп3 и выкладывание в соотвтствующем разделе
По всем вопросам пишите личное сообщение пользователю M0p94ok.
09:52
297
Нет комментариев. Ваш будет первым!