Вы используете незарегистрированную версию компонента "Вкладки"!

Поиск

(Avant-Garde Jazz/Post-Bop/Hard Bop/Modern Jazz) John Coltrane - The Impulse Story (1961-1967) - 2006, APE (image+.cue), lossless

(Avant-Garde Jazz/Post-Bop/Hard Bop/Modern Jazz) John Coltrane - The Impulse Story (1961-1967) - 2006, APE (image+.cue), lossless
Треклист:
John Coltrane - The Impulse Story (1961-1967)
Жанр: Avant-Garde Jazz/Post-Bop/Hard Bop/Modern Jazz
Год выпуска диска: 2006
Аудио кодек: APE
Тип рипа: image+.cue
Битрейт аудио: lossless
Продолжительность: 01:09:26
Трэклист:
01. Greensleeves 10:00
02. Chasin' the Trane 16:10
03. Tunji 06:35
04. Impressions 04:36
05. After the Rain 04:13
06. Bessie's Blues 03:34
07. A Love Supreme: Part 1- Acknowledgement 07:45
08. The Father and the Son and the Holy Ghost 12:53
09. Ogunde 03:36
 
Отчёт EAC
Exact Audio Copy V0.99 prebeta 4 from 23. January 2008
Отчёт EAC об извлечении, выполненном 11. апреля 2009, 1:02
John Coltrane / The Impulse Story (1961-1967)
Дисковод: Optiarc DVD RW AD-7530A Adapter: 1 ID: 1
Режим чтения : Достоверность
Использование точного потока : Да
Отключение кэша аудио : Да
Использование указателей C2 : Нет
Коррекция смещения при чтении : 6
Способность читать области Lead-in и Lead-out : Нет
Заполнение пропущенных сэмплов тишиной : Да
Удаление блоков с тишиной в начале и конце : Нет
При вычислениях CRC использовались нулевые сэмплы : Да
Интерфейс : Встроенный Win32-интерфейс для Win NT/2000
Выходной формат : Внутренние WAV-операции
Формат сэмплов : 44.100 Гц; 16 бит; стерео
TOC извлечённого CD
Трек | Старт | Длительность | Начальный сектор | Конечный сектор
---------------------------------------------------------------------
1 | 0:00.00 | 10:00.63 | 0 | 45062
2 | 10:00.63 | 16:10.20 | 45063 | 117832
3 | 26:11.08 | 6:35.52 | 117833 | 147509
4 | 32:46.60 | 4:36.21 | 147510 | 168230
5 | 37:23.06 | 4:13.45 | 168231 | 187250
6 | 41:36.51 | 3:34.63 | 187251 | 203363
7 | 45:11.39 | 7:45.30 | 203364 | 238268
8 | 52:56.69 | 12:53.15 | 238269 | 296258
9 | 65:50.09 | 3:36.46 | 296259 | 312504
Характеристики диапазона извлечения и сообщения об ошибках
Выбранный диапазон
Имя файла D:\Downloads\John Coltrane - The Impulse Story (1961-1967).wav
Пиковый уровень 100.0 %
Качество диапазона 99.9 %
CRC копии 0C6AAEAD
Копирование... OK
Ошибок не произошло
Конец отчёта
Any questions -> support@pro-jazz.com. По всем вопросам пишите -> support@pro-jazz.com
09:51
153
Нет комментариев. Ваш будет первым!