Вы используете незарегистрированную версию компонента "Вкладки"!

Поиск

(Free Jazz) Jason Stein's Locksmith Isidore - A Calculus of Loss - 2008, FLAC (image+.cue), lossless

(Free Jazz) Jason Stein's Locksmith Isidore - A Calculus of Loss - 2008, FLAC (image+.cue), lossless
Треклист:
Jason Stein's Locksmith Isidore - A Calculus of Loss
Жанр: Free Jazz
Год выпуска диска: 2008
Производитель диска: Portugal (Clean Feed CF104CD)
Аудио кодек: FLAC
Тип рипа: image+.cue
Битрейт аудио: lossless
Продолжительность: 44:31
Jason Stein bass clarinet
Kevin Davis cello
Mike Pride percussion
1. Nurse Ellen
2. Miss Izzy
3. That's Not a Closet
4. Caroline and Sam
5. 167th St.Elen
6. J.H. O1
Recorded on December 11th and 12th at the Shape Shoppe, Chicago, IL

 
Time Out (Chicago) Review
Eric Dolphy can be a hard predecessor to shake. Before his death in the early ’60s, the master reedist left such an identifiable stamp on the bass clarinet’s identity—wild, colorful and free—that few have managed to wrench the instrument in a new direction. Local bass clarinetist Jason Stein enters into this daunting void wisely; Stein isn’t seeking to out-Dolphy Dolphy, but rather to explore the subtler majesties of the instrument.
A native of Long Island, Stein first came to the Midwest via grad school at Ann Arbor’s University of Michigan. Since his move here several years ago, he has been an idiosyncratic sideman, dropping squeals in Ken Vandermark’s Bridge 61, neoclassical flights in Kyle Bruckmann’s Wrack and rough hard bop in Keefe Jackson’s Project Project. With Loss, Stein’s first recording as a leader, it’s clear another side—mystical composer—is beginning to emerge as well.
Recording for the revered Portuguese label Clean Feed, Stein’s trio—featuring New York drummer Mike Pride and local cellist Kevin Davis—can still speak in Dolphy’s bebop logorrheaas easily as a more meditative breath-speak. On the Americana strains of “Caroline and Sam,” Stein sounds like he’s plumbing the cavernous depths of a 50-foot PVC pipe. But on the bluesy classical swing of “That’s Not a Closet,” he plays a melody that sounds like Paul Desmond run through a washing machine. The bass clarinet, finally, has a new master to follow. ~ Time Out Chicago / Issue 165 : Apr 24–30, 2008
 
EAC Report
Exact Audio Copy V0.99 prebeta 4 from 23. January 2008
EAC extraction logfile from 9. April 2009, 21:14
Jason Stein's Locksmith Isidore / A Calculus of Loss
Used drive : TSSTcorpCD/DVDW SH-S182M Adapter: 2 ID: 0
Read mode : Secure
Utilize accurate stream : Yes
Defeat audio cache : Yes
Make use of C2 pointers : No
Read offset correction : 6
Overread into Lead-In and Lead-Out : No
Fill up missing offset samples with silence : Yes
Delete leading and trailing silent blocks : No
Null samples used in CRC calculations : Yes
Used interface : Installed external ASPI interface
Used output format : User Defined Encoder
Selected bitrate : 1024 kBit/s
Quality : High
Add ID3 tag : No
Command line compressor : C:\Program Files\Exact Audio Copy\FLAC\FLAC.EXE
Additional command line options : -8 -V -T "ARTIST=%a" -T "TITLE=%t" -T "ALBUM=%g" -T "DATE=%y" -T "TRACKNUMBER=%n" -T "GENRE=%m" -T "COMMENT=%e" %s -o %d
TOC of the extracted CD
Track | Start | Length | Start sector | End sector
---------------------------------------------------------
1 | 0:00.00 | 7:07.37 | 0 | 32061
2 | 7:07.37 | 7:06.63 | 32062 | 64074
3 | 14:14.25 | 8:18.47 | 64075 | 101471
4 | 22:32.72 | 11:06.28 | 101472 | 151449
5 | 33:39.25 | 8:54.19 | 151450 | 191518
6 | 42:33.44 | 1:57.25 | 191519 | 200318
Range status and errors
Selected range
Filename C:\Documents and Settings\Igor\My Documents\My Music\eac\Jason Stein's Locksmith Isidore - A Calculus of Loss.wav
Peak level 99.8 %
Range quality 100.0 %
Test CRC D7B59C39
Copy CRC D7B59C39
Copy OK
No errors occurred
AccurateRip summary
Track 1 not present in database
Track 2 not present in database
Track 3 not present in database
Track 4 not present in database
Track 5 not present in database
Track 6 not present in database
None of the tracks are present in the AccurateRip database
End of status report
Any questions -> support@pro-jazz.com. По всем вопросам пишите -> support@pro-jazz.com
09:50
140
Нет комментариев. Ваш будет первым!