Вы используете незарегистрированную версию компонента "Вкладки"!

Поиск

(Free Improvisation) Yves Cerf - Ephemerides - 1999, FLAC (tracks+.cue), lossless

(Free Improvisation) Yves Cerf - Ephemerides - 1999, FLAC (tracks+.cue), lossless
Треклист:
Yves Cerf / Éphémérides
Жанр: Free Improvisation
Страна-производитель диска: Switzerland
Год издания: 1999
Издатель (лейбл): Zone 13
Аудиокодек: FLAC (*.flac)
Тип рипа: tracks+.cue
Битрейт аудио: lossless
Продолжительность: 1:02:29
Источник (релизер): я
Наличие сканов в содержимом раздачи: нет
Треклист:
01. 1er janvier (4:52)
02. 1er février (4:02)
03. 1er mars (3:52)
04. 1er avril (6:25)
05. 1er mai (4:16)
06. 1er juin (5:47)
07. 1er juillet (4:48)
08. 1er août (5:14)
09. 1er septembre (5:37)
10. 1er octobre (5:58)
11. 1er novembre (3:14)
12. 1er décembre (8:24)
Compositions d’Yves Cerf.
Yves Cerf – saxophones basse, ténor et soprano, flûtes, bande son, boucles et objets sonores
 
Лог создания рипа
Exact Audio Copy V1.0 beta 3 from 29. August 2011
EAC extraction logfile from 31. October 2013, 15:36
Yves Cerf / Éphémérides
Used drive : SlimtypeeNAU508 5 Adapter: 1 ID: 0
Read mode : Secure
Utilize accurate stream : Yes
Defeat audio cache : Yes
Make use of C2 pointers : No
Read offset correction : 6
Overread into Lead-In and Lead-Out : No
Fill up missing offset samples with silence : Yes
Delete leading and trailing silent blocks : No
Null samples used in CRC calculations : Yes
Used interface : Native Win32 interface for Win NT & 2000
Gap handling : Appended to previous track
Used output format : User Defined Encoder
Selected bitrate : 768 kBit/s
Quality : High
Add ID3 tag : No
Command line compressor : C:\Program Files (x86)\Exact Audio Copy\Flac\flac.exe
Additional command line options : -8 -V -T "ARTIST=%artist%" -T "TITLE=%title%" -T "ALBUM=%albumtitle%" -T "DATE=%year%" -T "TRACKNUMBER=%tracknr%" -T "GENRE=%genre%" -T "PERFORMER=%albuminterpret%" -T "COMPOSER=%composer%" %haslyrics%--tag-from-file=LYRICS="%lyricsfile%"%haslyrics% -T "ALBUMARTIST=%albumartist%" -T "DISCNUMBER=%cdnumber%" -T "TOTALDISCS=%totalcds%" -T "TOTALTRACKS=%numtracks%" -T "COMMENT=%comment%" %source% -o %dest%
TOC of the extracted CD
Track | Start | Length | Start sector | End sector
---------------------------------------------------------
1 | 0:00.00 | 4:52.10 | 0 | 21909
2 | 4:52.10 | 4:01.74 | 21910 | 40058
3 | 8:54.09 | 3:51.39 | 40059 | 57422
4 | 12:45.48 | 6:24.58 | 57423 | 86280
5 | 19:10.31 | 4:15.56 | 86281 | 105461
6 | 23:26.12 | 5:46.54 | 105462 | 131465
7 | 29:12.66 | 4:48.28 | 131466 | 153093
8 | 34:01.19 | 5:14.26 | 153094 | 176669
9 | 39:15.45 | 5:36.38 | 176670 | 201907
10 | 44:52.08 | 5:58.22 | 201908 | 228779
11 | 50:50.30 | 3:14.17 | 228780 | 243346
12 | 54:04.47 | 8:24.14 | 243347 | 281160
Track 1
Filename C:\EAC rips\01 - 1er janvier.wav
Pre-gap length 0:00:02.00
Peak level 98.3 %
Extraction speed 1.9 X
Track quality 99.9 %
Test CRC 4D6193E6
Copy CRC 4D6193E6
Track not present in AccurateRip database
Copy OK
Track 2
Filename C:\EAC rips\02 - 1er février.wav
Pre-gap length 0:00:03.43
Peak level 87.0 %
Extraction speed 2.0 X
Track quality 99.9 %
Test CRC 98457DAE
Copy CRC 98457DAE
Track not present in AccurateRip database
Copy OK
Track 3
Filename C:\EAC rips\03 - 1er mars.wav
Pre-gap length 0:00:01.44
Peak level 98.3 %
Extraction speed 2.6 X
Track quality 100.0 %
Test CRC 02963263
Copy CRC 02963263
Track not present in AccurateRip database
Copy OK
Track 4
Filename C:\EAC rips\04 - 1er avril.wav
Pre-gap length 0:00:04.33
Peak level 98.6 %
Extraction speed 2.7 X
Track quality 99.9 %
Test CRC 03B221DC
Copy CRC 03B221DC
Track not present in AccurateRip database
Copy OK
Track 5
Filename C:\EAC rips\05 - 1er mai.wav
Pre-gap length 0:00:03.65
Peak level 99.4 %
Extraction speed 3.1 X
Track quality 100.0 %
Test CRC 49CB036E
Copy CRC 49CB036E
Track not present in AccurateRip database
Copy OK
Track 6
Filename C:\EAC rips\06 - 1er juin.wav
Pre-gap length 0:00:04.21
Peak level 99.0 %
Extraction speed 3.4 X
Track quality 100.0 %
Test CRC 7075E6AF
Copy CRC 7075E6AF
Track not present in AccurateRip database
Copy OK
Track 7
Filename C:\EAC rips\07 - 1er juillet.wav
Pre-gap length 0:00:02.08
Peak level 93.6 %
Extraction speed 3.5 X
Track quality 100.0 %
Test CRC 5D37C748
Copy CRC 5D37C748
Track not present in AccurateRip database
Copy OK
Track 8
Filename C:\EAC rips\08 - 1er août.wav
Pre-gap length 0:00:03.19
Peak level 96.8 %
Extraction speed 3.8 X
Track quality 100.0 %
Test CRC A44EEAD9
Copy CRC A44EEAD9
Track not present in AccurateRip database
Copy OK
Track 9
Filename C:\EAC rips\09 - 1er septembre.wav
Pre-gap length 0:00:04.44
Peak level 98.7 %
Extraction speed 3.9 X
Track quality 100.0 %
Test CRC 7975B8A7
Copy CRC 7975B8A7
Track not present in AccurateRip database
Copy OK
Track 10
Filename C:\EAC rips\10 - 1er octobre.wav
Pre-gap length 0:00:03.68
Peak level 98.0 %
Extraction speed 4.2 X
Track quality 100.0 %
Test CRC 4D54E852
Copy CRC 4D54E852
Track not present in AccurateRip database
Copy OK
Track 11
Filename C:\EAC rips\11 - 1er novembre.wav
Pre-gap length 0:00:05.20
Peak level 98.9 %
Extraction speed 3.1 X
Track quality 99.9 %
Test CRC AE3EAE49
Copy CRC AE3EAE49
Track not present in AccurateRip database
Copy OK
Track 12
Filename C:\EAC rips\12 - 1er décembre.wav
Pre-gap length 0:00:04.01
Peak level 99.3 %
Extraction speed 4.6 X
Track quality 100.0 %
Test CRC 41E78EC1
Copy CRC 41E78EC1
Track not present in AccurateRip database
Copy OK
None of the tracks are present in the AccurateRip database
No errors occurred
End of status report
---- CUETools DB Plugin V2.1.4
[CTDB TOCID: eheTuSqZrBeyH_KO62El8FWy9nU-] disk not present in database
Submit result: eheTuSqZrBeyH_KO62El8FWy9nU- has been uploaded
==== Log checksum 2A844AF4FC430AE6258CB545BFDFF7AD6F567A15E8D5BDD94A769560F107CBAC ====
 
Содержание индексной карты (.CUE)
REM GENRE Jazz
REM DATE 1999
REM DISCID A20EA40C
REM COMMENT "ExactAudioCopy v1.0b3"
PERFORMER "Yves Cerf"
TITLE "Éphémérides"
FILE "01 - 1er janvier.wav" WAVE
TRACK 01 AUDIO
TITLE "1er janvier"
PERFORMER "Yves Cerf"
INDEX 01 00:00:00
TRACK 02 AUDIO
TITLE "1er février"
PERFORMER "Yves Cerf"
INDEX 00 04:48:42
FILE "02 - 1er février.wav" WAVE
INDEX 01 00:00:00
TRACK 03 AUDIO
TITLE "1er mars"
PERFORMER "Yves Cerf"
INDEX 00 04:00:30
FILE "03 - 1er mars.wav" WAVE
INDEX 01 00:00:00
TRACK 04 AUDIO
TITLE "1er avril"
PERFORMER "Yves Cerf"
INDEX 00 03:47:06
FILE "04 - 1er avril.wav" WAVE
INDEX 01 00:00:00
TRACK 05 AUDIO
TITLE "1er mai"
PERFORMER "Yves Cerf"
INDEX 00 06:20:68
FILE "05 - 1er mai.wav" WAVE
INDEX 01 00:00:00
TRACK 06 AUDIO
TITLE "1er juin"
PERFORMER "Yves Cerf"
INDEX 00 04:11:35
FILE "06 - 1er juin.wav" WAVE
INDEX 01 00:00:00
TRACK 07 AUDIO
TITLE "1er juillet"
PERFORMER "Yves Cerf"
INDEX 00 05:44:46
FILE "07 - 1er juillet.wav" WAVE
INDEX 01 00:00:00
TRACK 08 AUDIO
TITLE "1er août"
PERFORMER "Yves Cerf"
INDEX 00 04:45:09
FILE "08 - 1er août.wav" WAVE
INDEX 01 00:00:00
TRACK 09 AUDIO
TITLE "1er septembre"
PERFORMER "Yves Cerf"
INDEX 00 05:09:57
FILE "09 - 1er septembre.wav" WAVE
INDEX 01 00:00:00
TRACK 10 AUDIO
TITLE "1er octobre"
PERFORMER "Yves Cerf"
INDEX 00 05:32:45
FILE "10 - 1er octobre.wav" WAVE
INDEX 01 00:00:00
TRACK 11 AUDIO
TITLE "1er novembre"
PERFORMER "Yves Cerf"
INDEX 00 05:53:02
FILE "11 - 1er novembre.wav" WAVE
INDEX 01 00:00:00
TRACK 12 AUDIO
TITLE "1er décembre"
PERFORMER "Yves Cerf"
INDEX 00 03:10:16
FILE "12 - 1er décembre.wav" WAVE
INDEX 01 00:00:00
Доп. информация: You can see the ephemeris of the artist Carol Ossipow here.
По всем вопросам пишите личное сообщение пользователю M0p94ok.
20:08
181
Нет комментариев. Ваш будет первым!