Вы используете незарегистрированную версию компонента "Вкладки"!

Поиск

(Avant-Garde Jazz, Free Funk) Music Revelation Ensemble - Elec. Jazz (feat. David Murray) - 1990, FLAC (tracks+.cue), lossless

(Avant-Garde Jazz, Free Funk) Music Revelation Ensemble - Elec. Jazz (feat. David Murray) - 1990, FLAC (tracks+.cue), lossless
Треклист:
Music Revelation Ensemble / Elec. Jazz
Жанр: Avant-Garde Jazz, Free Funk
Страна-производитель диска: Japan
Год издания: 1990
Издатель (лейбл): DIW
Номер по каталогу: DIW-839
Страна: USA
Аудиокодек: FLAC (*.flac)
Тип рипа: tracks+.cue
Битрейт аудио: lossless
Продолжительность: 00:50:24
Источник (релизер): what.cd
Наличие сканов в содержимом раздачи: да
Треклист:
1 Exit 5:27
2 Inter City 6:40
3 Big Top 5:45
4 No More 8:22
5 Big Top Part 2 6:46
6 Taps Dance 10:32
7 Exit Part 2 6:44
 
Лог создания рипа
EAC extraction logfile from 16. September 2008, 15:26 for CD
Music Revelation Ensemble / Elec. Jazz
Used drive : TOSHIBA DVD-ROM SD-M1612 Adapter: 1 ID: 0
Read mode : Secure with NO C2, accurate stream, disable cache
Read offset correction : -472
Overread into Lead-In and Lead-Out : No
Used output format : C:\Program Files\Exact Audio Copy\flac.exe (User Defined Encoder)
224 kBit/s
Additional command line options : -8 -V -T "artist=%a" -T "title=%t" -T "album=%g" -T "date=%y" -T "tracknumber=%n" -T "genre=%m" %s
Other options :
Fill up missing offset samples with silence : Yes
Delete leading and trailing silent blocks : No
Installed external ASPI interface
Track 1
Filename H:\BT-UP\Music Revelation Ensemble - Elec. Jazz\01 - Exit.wav
Pre-gap length 0:00:02.00
Peak level 76.9 %
Track quality 100.0 %
Test CRC E6CB331A
Copy CRC E6CB331A
Copy OK
Track 2
Filename H:\BT-UP\Music Revelation Ensemble - Elec. Jazz\02 - Inter City.wav
Pre-gap length 0:00:01.00
Peak level 64.2 %
Track quality 100.0 %
Test CRC DCF7CCFB
Copy CRC DCF7CCFB
Copy OK
Track 3
Filename H:\BT-UP\Music Revelation Ensemble - Elec. Jazz\03 - Big Top.wav
Pre-gap length 0:00:00.38
Peak level 58.2 %
Track quality 100.0 %
Test CRC D896CF51
Copy CRC D896CF51
Copy OK
Track 4
Filename H:\BT-UP\Music Revelation Ensemble - Elec. Jazz\04 - No More.wav
Pre-gap length 0:00:01.50
Peak level 79.8 %
Track quality 100.0 %
Test CRC 3AA18150
Copy CRC 3AA18150
Copy OK
Track 5
Filename H:\BT-UP\Music Revelation Ensemble - Elec. Jazz\05 - Big Top part 2.wav
Pre-gap length 0:00:01.00
Peak level 62.1 %
Track quality 100.0 %
Test CRC 4A012067
Copy CRC 4A012067
Copy OK
Track 6
Filename H:\BT-UP\Music Revelation Ensemble - Elec. Jazz\06 - Taps Dance.wav
Pre-gap length 0:00:00.01
Peak level 75.0 %
Track quality 100.0 %
Test CRC 994B2573
Copy CRC 994B2573
Copy OK
Track 7
Filename H:\BT-UP\Music Revelation Ensemble - Elec. Jazz\07 - Exit part 2.wav
Pre-gap length 0:00:01.01
Peak level 70.1 %
Track quality 100.0 %
Test CRC 67DA854B
Copy CRC 67DA854B
Copy OK
No errors occured
End of status report
 
Содержание индексной карты (.CUE)
REM GENRE Jazz
REM DATE 1990
REM DISCID 580BD007
REM COMMENT "ExactAudioCopy v0.95b4"
PERFORMER "Music Revelation Ensemble"
TITLE "Elec. Jazz"
FILE "01 Exit.wav" WAVE
TRACK 01 AUDIO
TITLE "Exit"
PERFORMER "Music Revelation Ensemble"
INDEX 01 00:00:00
TRACK 02 AUDIO
TITLE "Inter City"
PERFORMER "Music Revelation Ensemble"
INDEX 00 05:27:10
FILE "02 Inter City.wav" WAVE
INDEX 01 00:00:00
TRACK 03 AUDIO
TITLE "Big Top"
PERFORMER "Music Revelation Ensemble"
INDEX 00 06:40:27
FILE "03 Big Top.wav" WAVE
INDEX 01 00:00:00
TRACK 04 AUDIO
TITLE "No More"
PERFORMER "Music Revelation Ensemble"
INDEX 00 05:45:42
FILE "04 No More.wav" WAVE
INDEX 01 00:00:00
TRACK 05 AUDIO
TITLE "Big Top part 2"
PERFORMER "Music Revelation Ensemble"
INDEX 00 08:22:73
FILE "05 Big Top part 2.wav" WAVE
INDEX 01 00:00:00
TRACK 06 AUDIO
TITLE "Taps Dance"
PERFORMER "Music Revelation Ensemble"
INDEX 00 06:46:24
FILE "06 Taps Dance.wav" WAVE
INDEX 01 00:00:00
TRACK 07 AUDIO
TITLE "Exit part 2"
PERFORMER "Music Revelation Ensemble"
INDEX 00 10:32:09
FILE "07 Exit part 2.wav" WAVE
INDEX 01 00:00:00
 
Об альбоме (сборнике)
Essentially James "Blood" Ulmer's band, the Music Revelation Ensemble both harks back to his early recorded history with saxophonist David Murray and seeks to update the guitarist's unique fusion of funk, out jazz, and hardcore blues. Ulmer's compositions (all of the pieces are his) are under the strong influence of his former teacher and employer Ornette Coleman; indeed, "Big Top" almost sounds lifted from the latter's songbook, which is strong praise. He also shows a surprising deftness of touch in the penning of a piece like "No More," a beautiful, haunting blues ballad that recalls Hendrix at his best. The music actually is more successful the closer it steers to jazz forms in this case. Murray often sounds fettered in funk settings and seems to require more expansive structures to fly freely and, sticking to tenor for this date, he does so to good effect on tracks like "Inter City." Bassist Amin Ali balances split-second funk popping with thoughtful, delicate playing, providing just the right accents and levels of spice. If anything, one might only carp about Cornell Rochester's drumming which, in several instances, is more leaden than one might wish. Ulmer, of course, is sui generis, and his playing here, in all its raggedness, grit, and clarity, is arguably some of the best he ever put to disc. Forget the insipid album title. Elec. Jazz contains some fine, tough music and is well-worth seeking out. by Brian Olewnick
 
Состав
James "Blood" Ulmer: Guitar
David Murray: Tenor Sax
Amin Ali: Electric Bass
Cornell Rochester: Drums
Any questions -> support@pro-jazz.com. По всем вопросам пишите -> support@pro-jazz.com
20:09
155
Нет комментариев. Ваш будет первым!