Вы используете незарегистрированную версию компонента "Вкладки"!

Поиск

(Avant-Garde, Modern Jazz) Francesco Bearzatti Tinissima Quartet (Giovanni Falzone, Danilo Gallo, Zeno de Rossi) - Suite for Tina Modotti - 2008, FLAC (tracks+.cue), lossless

(Avant-Garde, Modern Jazz) Francesco Bearzatti Tinissima Quartet (Giovanni Falzone, Danilo Gallo, Zeno de Rossi) - Suite for Tina Modotti - 2008, FLAC (tracks+.cue), lossless
Треклист:
Francesco Bearzatti Tinissima Quartet / Suite for Tina Modotti
Жанр: Avant-Garde, Modern Jazz
Страна-производитель диска: Italy
Год издания: 2008
Издатель (лейбл): Parco della Musica
Номер по каталогу: MPR 008CD
Аудиокодек: FLAC (*.flac)
Тип рипа: tracks+.cue
Битрейт аудио: lossless
Продолжительность: 50:38
Источник (релизер): я
Наличие сканов в содержимом раздачи: да
Треклист:
1. Mandi Friul 5:58
2. America! 5:40
3. Why? 6:34
4. México 6:19
5. Missions 4:44
6. Russia 5:26
7. Guerra civil 8:19
8. Back to México 0:56
9. Hermana no duermes 6:41
All tunes composed and arranged by Francesco Bearzatti.
Recorded live at Artesuono Recording Studio, Cavalicco (UD, Italy) on June 4, 5 and 27, 2008.
Francesco Bearzatti – Sax & Clarinet
Giovanni Falzone – Trumpet & Human Effects
Danilo Gallo – Double Bass & Acoustic Bass Guitar
Zeno de Rossi – Drums & Percussions
 
Лог создания рипа
Exact Audio Copy V1.0 beta 3 from 29. August 2011
EAC extraction logfile from 7. November 2013, 12:47
Francesco Bearzatti Tinissima Quartet / Suite for Tina Modotti
Used drive : SlimtypeeNAU508 5 Adapter: 1 ID: 0
Read mode : Secure
Utilize accurate stream : Yes
Defeat audio cache : Yes
Make use of C2 pointers : No
Read offset correction : 6
Overread into Lead-In and Lead-Out : No
Fill up missing offset samples with silence : Yes
Delete leading and trailing silent blocks : No
Null samples used in CRC calculations : Yes
Used interface : Native Win32 interface for Win NT & 2000
Gap handling : Appended to previous track
Used output format : User Defined Encoder
Selected bitrate : 768 kBit/s
Quality : High
Add ID3 tag : No
Command line compressor : C:\Program Files (x86)\Exact Audio Copy\Flac\flac.exe
Additional command line options : -8 -V -T "ARTIST=%artist%" -T "TITLE=%title%" -T "ALBUM=%albumtitle%" -T "DATE=%year%" -T "TRACKNUMBER=%tracknr%" -T "GENRE=%genre%" -T "PERFORMER=%albuminterpret%" -T "COMPOSER=%composer%" %haslyrics%--tag-from-file=LYRICS="%lyricsfile%"%haslyrics% -T "ALBUMARTIST=%albumartist%" -T "DISCNUMBER=%cdnumber%" -T "TOTALDISCS=%totalcds%" -T "TOTALTRACKS=%numtracks%" -T "COMMENT=%comment%" %source% -o %dest%
TOC of the extracted CD
Track | Start | Length | Start sector | End sector
---------------------------------------------------------
1 | 0:00.00 | 5:57.41 | 0 | 26815
2 | 5:57.41 | 5:40.24 | 26816 | 52339
3 | 11:37.65 | 6:34.10 | 52340 | 81899
4 | 18:12.00 | 6:19.12 | 81900 | 110336
5 | 24:31.12 | 4:44.26 | 110337 | 131662
6 | 29:15.38 | 5:26.04 | 131663 | 156116
7 | 34:41.42 | 8:19.05 | 156117 | 193546
8 | 43:00.47 | 0:56.23 | 193547 | 197769
9 | 43:56.70 | 6:40.48 | 197770 | 227817
Track 1
Filename C:\EAC rips\01 - Mandi Friul.wav
Pre-gap length 0:00:02.00
Peak level 96.6 %
Extraction speed 1.1 X
Track quality 99.9 %
Test CRC CC6BE12A
Copy CRC CC6BE12A
Accurately ripped (confidence 2) [78C3389C] (AR v1)
Copy OK
Track 2
Filename C:\EAC rips\02 - America!.wav
Peak level 96.6 %
Extraction speed 1.3 X
Track quality 100.0 %
Test CRC 35E29A66
Copy CRC 35E29A66
Accurately ripped (confidence 2) [4BB6CC33] (AR v1)
Copy OK
Track 3
Filename C:\EAC rips\03 - Why_.wav
Peak level 96.6 %
Extraction speed 1.5 X
Track quality 100.0 %
Test CRC 624D80AA
Copy CRC 624D80AA
Accurately ripped (confidence 2) [B36DF592] (AR v1)
Copy OK
Track 4
Filename C:\EAC rips\04 - México.wav
Peak level 96.6 %
Extraction speed 1.6 X
Track quality 100.0 %
Test CRC E2B45B1E
Copy CRC E2B45B1E
Accurately ripped (confidence 2) [9F7CAF41] (AR v1)
Copy OK
Track 5
Filename C:\EAC rips\05 - Missions.wav
Peak level 96.6 %
Extraction speed 1.7 X
Track quality 100.0 %
Test CRC 24CDD3BD
Copy CRC 24CDD3BD
Accurately ripped (confidence 2) [935A8F08] (AR v1)
Copy OK
Track 6
Filename C:\EAC rips\06 - Russia.wav
Peak level 96.6 %
Extraction speed 1.8 X
Track quality 100.0 %
Test CRC DE1D237C
Copy CRC DE1D237C
Accurately ripped (confidence 2) [C55F37E1] (AR v1)
Copy OK
Track 7
Filename C:\EAC rips\07 - Guerra civil.wav
Peak level 96.6 %
Extraction speed 2.0 X
Track quality 100.0 %
Test CRC 5C6F4316
Copy CRC 5C6F4316
Accurately ripped (confidence 2) [A770441C] (AR v1)
Copy OK
Track 8
Filename C:\EAC rips\08 - Back to México.wav
Peak level 96.6 %
Extraction speed 1.3 X
Track quality 100.0 %
Test CRC 7081BAB6
Copy CRC 7081BAB6
Accurately ripped (confidence 2) [B436D401] (AR v1)
Copy OK
Track 9
Filename C:\EAC rips\09 - Hermana no duermes.wav
Peak level 96.6 %
Extraction speed 2.1 X
Track quality 100.0 %
Test CRC 535067ED
Copy CRC 535067ED
Accurately ripped (confidence 2) [78EA57E1] (AR v1)
Copy OK
All tracks accurately ripped
No errors occurred
End of status report
---- CUETools DB Plugin V2.1.4
[CTDB TOCID: YIgSneDl7Kn9dQFyS.4L6CD7QNY-] disk not present in database
Submit result: YIgSneDl7Kn9dQFyS.4L6CD7QNY- has been uploaded
==== Log checksum 8BF57422C256010CD308FC4C14177D85298B690E6BE97D99999FAF7BCF1EC43B ====
 
Содержание индексной карты (.CUE)
REM GENRE Jazz
REM DATE 2008
REM DISCID 8D0BDD09
REM COMMENT "ExactAudioCopy v1.0b3"
PERFORMER "Francesco Bearzatti Tinissima Quartet"
TITLE "Suite for Tina Modotti"
FILE "01 - Mandi Friul.wav" WAVE
TRACK 01 AUDIO
TITLE "Mandi Friul"
PERFORMER "Francesco Bearzatti Tinissima Quartet"
ISRC ITPDM0700096
INDEX 01 00:00:00
FILE "02 - America!.wav" WAVE
TRACK 02 AUDIO
TITLE "America!"
PERFORMER "Francesco Bearzatti Tinissima Quartet"
ISRC ITPDM0700097
INDEX 01 00:00:00
FILE "03 - Why_.wav" WAVE
TRACK 03 AUDIO
TITLE "Why?"
PERFORMER "Francesco Bearzatti Tinissima Quartet"
ISRC ITPDM0700098
INDEX 01 00:00:00
FILE "04 - México.wav" WAVE
TRACK 04 AUDIO
TITLE "México"
PERFORMER "Francesco Bearzatti Tinissima Quartet"
ISRC ITPDM0700099
INDEX 01 00:00:00
FILE "05 - Missions.wav" WAVE
TRACK 05 AUDIO
TITLE "Missions"
PERFORMER "Francesco Bearzatti Tinissima Quartet"
ISRC ITPDM0700100
INDEX 01 00:00:00
FILE "06 - Russia.wav" WAVE
TRACK 06 AUDIO
TITLE "Russia"
PERFORMER "Francesco Bearzatti Tinissima Quartet"
ISRC ITPDM0700101
INDEX 01 00:00:00
FILE "07 - Guerra civil.wav" WAVE
TRACK 07 AUDIO
TITLE "Guerra civil"
PERFORMER "Francesco Bearzatti Tinissima Quartet"
ISRC ITPDM0700102
INDEX 01 00:00:00
FILE "08 - Back to México.wav" WAVE
TRACK 08 AUDIO
TITLE "Back to México"
PERFORMER "Francesco Bearzatti Tinissima Quartet"
ISRC ITPDM0700103
INDEX 01 00:00:00
FILE "09 - Hermana no duermes.wav" WAVE
TRACK 09 AUDIO
TITLE "Hermana no duermes"
PERFORMER "Francesco Bearzatti Tinissima Quartet"
ISRC ITPDM0700104
INDEX 01 00:00:00
Any questions -> support@pro-jazz.com. По всем вопросам пишите -> support@pro-jazz.com
20:09
153
Нет комментариев. Ваш будет первым!