Вы используете незарегистрированную версию компонента "Вкладки"!

Поиск

(free jazz)Bill Dixon - Envoi (2011), FLAC (tracks+.cue), lossless

(free jazz)Bill Dixon - Envoi (2011), FLAC (tracks+.cue), lossless
Треклист:


Bill Dixon - Envoi (2011)

Жанр: free jazz
Год выпуска: 2011
Издатель (лейбл):Les Disques Victo / Victo CD 120
Формат: FLAC (tracks+.cue)
Битрейт аудио: lossless
Продолжительность 53`07
Источник: what.cd, sisterray_
Bill Dixon - trumpet, composition, direction
Stephen Haynes - trumpet, cornet, bugle
Taylor Ho Bynum - cornet, bugle
Rob Mazurek - cornet
Graham Haynes - cornet, bugle
Michel Côté - contrabass clarinet
Glynis Loman - cello
Ken Filiano - double bass
Warren Smith - vibraphone, percussion, drums
Recorded May 22, 2010 at Festival International de Musique Actuelle de Victoriaville.

tracks
1. Envoi - Section I (24:31)
2. Envoi - Section II (27:38)
3. Epilogue (0:57)


 
.log
X Lossless Decoder version 20130127 (142.3)
XLD extraction logfile from 2013-03-01 13:33:01 -0500
Bill Dixon / Envoi
Used drive : MATSHITA DVD-R UJ-8A8 (revision HA13)
Media type : Pressed CD
Ripper mode : XLD Secure Ripper
Disable audio cache : OK for the drive with a cache less than 1375KiB
Make use of C2 pointers : NO
Read offset correction : 102
Max retry count : 20
Gap status : Analyzed, Appended (except HTOA)
TOC of the extracted CD
Track | Start | Length | Start sector | End sector
---------------------------------------------------------
1 | 00:00:00 | 24:31:24 | 0 | 110348
2 | 24:31:24 | 27:37:58 | 110349 | 234681
3 | 52:09:07 | 00:57:35 | 234682 | 238991
AccurateRip Summary
Disc not found in AccurateRip DB.
All Tracks
Album gain : -2.98 dB
Peak : 0.999939
Statistics
Read error : 0
Jitter error (maybe fixed) : 0
Retry sector count : 1
Damaged sector count : 0
Track 01
Filename : /Users/ho2075/Desktop/Bill Dixon - Envoi (2011) [FLAC]/01 Envoi - Section I.flac
Pre-gap length : 00:02:00
Track gain : -3.80 dB
Peak : 0.999939
CRC32 hash (test run) : 7F5D86AF
CRC32 hash : 7F5D86AF
CRC32 hash (skip zero) : 33892311
AccurateRip v1 signature : 06AA0CA8
AccurateRip v2 signature : 38DA52A0
->Track not present in AccurateRip database.
Statistics
Read error : 0
Jitter error (maybe fixed) : 0
Retry sector count : 0
Damaged sector count : 0
Track 02
Filename : /Users/ho2075/Desktop/Bill Dixon - Envoi (2011) [FLAC]/02 Envoi - Section II.flac
Track gain : -0.92 dB
Peak : 0.999939
CRC32 hash (test run) : C786EFFD
CRC32 hash : C786EFFD
CRC32 hash (skip zero) : 927092E3
AccurateRip v1 signature : 581BF105
AccurateRip v2 signature : 26569358
->Track not present in AccurateRip database.
Statistics
Read error : 0
Jitter error (maybe fixed) : 0
Retry sector count : 1
Damaged sector count : 0
Track 03
Filename : /Users/ho2075/Desktop/Bill Dixon - Envoi (2011) [FLAC]/03 Epilogue.flac
Track gain : 5.84 dB
Peak : 0.781342
CRC32 hash (test run) : 37B8488F
CRC32 hash : 37B8488F
CRC32 hash (skip zero) : D7C4306F
AccurateRip v1 signature : 36A493A5
AccurateRip v2 signature : 12A42600
->Track not present in AccurateRip database.
Statistics
Read error : 0
Jitter error (maybe fixed) : 0
Retry sector count : 0
Damaged sector count : 0
No errors occurred
End of status report
 
.cue
TITLE "Envoi"
PERFORMER "Bill Dixon"
REM GENRE "Jazz"
REM DATE "2011"
REM DISCID 190C7203
REM REPLAYGAIN_ALBUM_GAIN -2.98 dB
REM REPLAYGAIN_ALBUM_PEAK 0.999939
FILE "01 Envoi - Section I.flac" WAVE
TRACK 01 AUDIO
TITLE "Envoi - Section I"
SONGWRITER "Bill Dixon"
REM REPLAYGAIN_TRACK_GAIN -3.80 dB
REM REPLAYGAIN_TRACK_PEAK 0.999939
INDEX 01 00:00:00
FILE "02 Envoi - Section II.flac" WAVE
TRACK 02 AUDIO
TITLE "Envoi - Section II"
SONGWRITER "Bill Dixon"
REM REPLAYGAIN_TRACK_GAIN -0.92 dB
REM REPLAYGAIN_TRACK_PEAK 0.999939
INDEX 01 00:00:00
FILE "03 Epilogue.flac" WAVE
TRACK 03 AUDIO
TITLE "Epilogue"
SONGWRITER "Bill Dixon"
REM REPLAYGAIN_TRACK_GAIN 5.84 dB
REM REPLAYGAIN_TRACK_PEAK 0.781342
INDEX 01 00:00:00
 
.accurip
[CUETools log; Date: 07/11/13 18:33:29; Version: 2.1.4]
[CTDB TOCID: S_V9pKU_yRDJ5B71VVsI9OFduPM-] disk not present in database.
[AccurateRip ID: 0008e957-001cb289-190c7203] found.
Track [ CRC | V2 ] Status
01 [06aa0ca8|38da52a0] (0+2/2) Accurately ripped
02 [581bf105|26569358] (0+2/2) Accurately ripped
03 [36a493a5|12a42600] (0+2/2) Accurately ripped
Track Peak [ CRC32 ] [W/O NULL]
-- 99.9 [938017F3] [337D7B74]
01 99.9 [7F5D86AF] [33892311]
02 99.9 [C786EFFD] [927092E3]
03 78.1 [37B8488F] [D7C4306F]

другие релизы
Any questions -> support@pro-jazz.com. По всем вопросам пишите -> support@pro-jazz.com
20:10
120
Нет комментариев. Ваш будет первым!