Вы используете незарегистрированную версию компонента "Вкладки"!

Поиск

(Avant-Garde Jazz, Free Improvisation) Elliott Sharp - Concert in Dachau - 2008, FLAC (tracks+.cue), lossless

(Avant-Garde Jazz, Free Improvisation) Elliott Sharp - Concert in Dachau - 2008, FLAC (tracks+.cue), lossless
Треклист:
♦ Elliott Sharp - Concert in Dachau ♦
Жанр: Avant-Garde Jazz, Free Improvisation
Страна-производитель диска: Switzerland
Год издания: 2008
Издатель (лейбл): Intakt
Номер по каталогу: CD 149
Аудиокодек: FLAC (*.flac)
Тип рипа: tracks+.cue
Битрейт аудио: lossless
Продолжительность: 01:13:44
Источник (релизер): d'Avignon
Наличие сканов в содержимом раздачи: да
Треклист:
01. Dachau 1 [18:28]
02. Dachau 2 [22:35]
03. Dachau 3 [25:11]
04. Dachau Encore [07:28]
 
Лог создания рипа
Exact Audio Copy V1.0 beta 3 from 29. August 2011
EAC extraction logfile from 6. November 2013, 4:04
Elliott Sharp / Concert in Dachau
Used drive : TSSTcorpCDDVDW SH-216AB Adapter: 1 ID: 0
Read mode : Secure
Utilize accurate stream : Yes
Defeat audio cache : Yes
Make use of C2 pointers : No
Read offset correction : 6
Overread into Lead-In and Lead-Out : No
Fill up missing offset samples with silence : Yes
Delete leading and trailing silent blocks : No
Null samples used in CRC calculations : Yes
Used interface : Native Win32 interface for Win NT & 2000
Gap handling : Appended to previous track
Used output format : User Defined Encoder
Selected bitrate : 768 kBit/s
Quality : High
Add ID3 tag : No
Command line compressor : C:\Program Files (x86)\Exact Audio Copy\FLAC\FLAC.EXE
Additional command line options : -6 -V -T "ARTIST=%artist%" -T "TITLE=%title%" -T "ALBUM=%albumtitle%" -T "DATE=%year%" -T "TRACKNUMBER=%tracknr%" -T "GENRE=%genre%" -T "COMMENT=%comment%" -T "BAND=%albuminterpret%" -T "ALBUMARTIST=%albuminterpret%" -T "COMPOSER=%composer%" %haslyrics%--tag-from-file=LYRICS="%lyricsfile%"%haslyrics% -T "DISCNUMBER=%cdnumber%" -T "TOTALDISCS=%totalcds%" -T "TOTALTRACKS=%numtracks%" %hascover%--picture="%coverfile%"%hascover% %source% -o %dest%
TOC of the extracted CD
Track | Start | Length | Start sector | End sector
---------------------------------------------------------
1 | 0:00.00 | 18:28.64 | 0 | 83163
2 | 18:28.64 | 22:35.66 | 83164 | 184854
3 | 41:04.55 | 25:11.26 | 184855 | 298205
4 | 66:16.06 | 7:28.28 | 298206 | 331833
Track 1
Filename C:\Users\astarte\03. POST\Sharp, Elliott - Concert in Dachau\01. Dachau 1.wav
Pre-gap length 0:00:02.00
Peak level 97.6 %
Extraction speed 6.0 X
Track quality 99.9 %
Copy CRC EA6E88A6
Accurately ripped (confidence 2) [60B2899A] (AR v1)
Copy OK
Track 2
Filename C:\Users\astarte\03. POST\Sharp, Elliott - Concert in Dachau\02. Dachau 2.wav
Peak level 97.6 %
Extraction speed 7.9 X
Track quality 99.9 %
Copy CRC E8DC4502
Accurately ripped (confidence 2) [ABB3AE16] (AR v1)
Copy OK
Track 3
Filename C:\Users\astarte\03. POST\Sharp, Elliott - Concert in Dachau\03. Dachau 3.wav
Peak level 97.6 %
Extraction speed 9.9 X
Track quality 100.0 %
Copy CRC 4A757F33
Accurately ripped (confidence 2) [AD185E00] (AR v1)
Copy OK
Track 4
Filename C:\Users\astarte\03. POST\Sharp, Elliott - Concert in Dachau\04. Dachau Encore.wav
Pre-gap length 0:00:03.46
Peak level 97.6 %
Extraction speed 10.4 X
Track quality 100.0 %
Copy CRC BEF2A89B
Accurately ripped (confidence 2) [098FF2B1] (AR v1)
Copy OK
All tracks accurately ripped
No errors occurred
End of status report
==== Log checksum F7A2F068B8DCEF5F26C768E4C173A0283EC36BF7CE5E9F874D82D1E0413E8838 ====
 
Содержание индексной карты (.CUE)
REM GENRE Jazz
REM DATE 2008
REM DISCID 32114804
REM COMMENT "ExactAudioCopy v1.0b3"
PERFORMER "Elliott Sharp"
TITLE "Concert in Dachau"
FILE "01. Dachau 1.wav" WAVE
TRACK 01 AUDIO
TITLE "Dachau 1"
PERFORMER "Elliott Sharp"
ISRC CH2700800646
INDEX 01 00:00:00
FILE "02. Dachau 2.wav" WAVE
TRACK 02 AUDIO
TITLE "Dachau 2"
PERFORMER "Elliott Sharp"
ISRC CH2700800647
INDEX 01 00:00:00
FILE "03. Dachau 3.wav" WAVE
TRACK 03 AUDIO
TITLE "Dachau 3"
PERFORMER "Elliott Sharp"
ISRC CH2700800648
INDEX 01 00:00:00
TRACK 04 AUDIO
TITLE "Dachau Encore"
PERFORMER "Elliott Sharp"
ISRC CH2700800649
INDEX 00 25:07:66
FILE "04. Dachau Encore.wav" WAVE
INDEX 01 00:00:00
 
Состав
Elliott Sharp – electroacoustic guitar, laptop
По всем вопросам пишите личное сообщение пользователю M0p94ok.
20:07
140
Нет комментариев. Ваш будет первым!