Поиск

(Free Jazz, Contemporary Jazz, Free Improvisation) Mikko Innanen & Innkvisitio (Fredrik Ljungkvist, Daniel Erdmann, Seppo Kantonen, Joonas Riippa) - Clustrophy - 2010, FLAC (image+.cue), lossless

(Free Jazz, Contemporary Jazz, Free Improvisation) Mikko Innanen & Innkvisitio (Fredrik Ljungkvist, Daniel Erdmann, Seppo Kantonen, Joonas Riippa) - Clustrophy - 2010, FLAC (image+.cue), lossless
Mikko Innanen & Innkvisitio / Clustrophy
Жанр: Free Jazz, Contemporary Jazz, Free Improvisation
Страна-производитель диска: Finland
Год издания: 2010
Издатель (лейбл): TUM Records
Номер по каталогу: CD 025
Аудиокодек: FLAC (*.flac)
Тип рипа: image+.cue
Битрейт аудио: lossless
Продолжительность: 57:52
Источник (релизер): cd
Наличие сканов в содержимом раздачи: нет
Треклист:
1.Earth`s Second Moon 4:20
2.Vraa-Tender 3:20
3.Clustrophy 6:59
4.A Panoramic View from the Top Floor 7:04
5.Underground 2:30
6.The Grey Adler Returns Again 10:28
7.Ardennes at Dawn 4:42
8.Jantaraboon II 4:13
9.Detto the Magician 3:37
10.757 8:15
11.Jam Afane 2:06
 
Лог создания рипа
Exact Audio Copy V1.0 beta 2 from 29. April 2011
EAC extraction logfile from 4. November 2013, 11:39
Mikko Innanen & Innkvisitio / Clustrophy
Used drive : Optiarc DVD RW AD-7170A Adapter: 0 ID: 0
Read mode : Secure
Utilize accurate stream : Yes
Defeat audio cache : Yes
Make use of C2 pointers : No
Read offset correction : 48
Overread into Lead-In and Lead-Out : No
Fill up missing offset samples with silence : Yes
Delete leading and trailing silent blocks : No
Null samples used in CRC calculations : Yes
Used interface : Native Win32 interface for Win NT & 2000
Used output format : User Defined Encoder
Selected bitrate : 320 kBit/s
Quality : High
Add ID3 tag : No
Command line compressor : C:\Program Files\Exact Audio Copy\Flac\flac.exe
Additional command line options : -V -8 -T "Date=%year%" -T "Genre=%genre%" %source%
TOC of the extracted CD
Track | Start | Length | Start sector | End sector
---------------------------------------------------------
1 | 0:00.00 | 4:23.11 | 0 | 19735
2 | 4:23.11 | 3:21.05 | 19736 | 34815
3 | 7:44.16 | 7:00.45 | 34816 | 66360
4 | 14:44.61 | 7:04.41 | 66361 | 98201
5 | 21:49.27 | 2:30.06 | 98202 | 109457
6 | 24:19.33 | 10:31.60 | 109458 | 156842
7 | 34:51.18 | 4:43.07 | 156843 | 178074
8 | 39:34.25 | 4:16.34 | 178075 | 197308
9 | 43:50.59 | 3:36.41 | 197309 | 213549
10 | 47:27.25 | 8:19.13 | 213550 | 250987
11 | 55:46.38 | 2:05.67 | 250988 | 260429
Range status and errors
Selected range
Filename K:\ЕАС\Mikko Innanen & Innkvisitio - Clustrophy.wav
Peak level 96.6 %
Extraction speed 2.0 X
Range quality 99.9 %
Test CRC 272ADEEA
Copy CRC 272ADEEA
Copy OK
No errors occurred
AccurateRip summary
Track 1 accurately ripped (confidence 2) [C55D5EF9] (AR v2)
Track 2 accurately ripped (confidence 2) [7A864DFC] (AR v2)
Track 3 accurately ripped (confidence 2) [02E78A2D] (AR v2)
Track 4 accurately ripped (confidence 2) [68E7A1DA] (AR v2)
Track 5 accurately ripped (confidence 2) [C996398B] (AR v2)
Track 6 accurately ripped (confidence 2) [54B5C8AB] (AR v2)
Track 7 accurately ripped (confidence 2) [11F221E1] (AR v2)
Track 8 accurately ripped (confidence 2) [A628EB58] (AR v2)
Track 9 accurately ripped (confidence 2) [12C1F4E6] (AR v2)
Track 10 accurately ripped (confidence 2) [1B2AB223] (AR v2)
Track 11 accurately ripped (confidence 2) [840E5402] (AR v2)
All tracks accurately ripped
End of status report
==== Log checksum 42085B040C098FD604CDEEC852463AB20A951E509D46481CD2ED3ECBA6567FF9 ====
 
Содержание индексной карты (.CUE)
REM GENRE Jazz
REM DATE 2010
REM DISCID 9D0D900B
REM COMMENT "ExactAudioCopy v1.0b2"
PERFORMER "Mikko Innanen & Innkvisitio"
TITLE "Clustrophy"
FILE "Mikko Innanen & Innkvisitio - Clustrophy.flac" WAVE
TRACK 01 AUDIO
TITLE "Earth.s Second Moon"
PERFORMER "Mikko Innanen & Innkvisitio"
ISRC FITU91000015
INDEX 01 00:00:00
TRACK 02 AUDIO
TITLE "Vraa-Tender"
PERFORMER "Mikko Innanen & Innkvisitio"
ISRC FITU91000016
INDEX 00 04:20:16
INDEX 01 04:23:11
TRACK 03 AUDIO
TITLE "Clustrophy"
PERFORMER "Mikko Innanen & Innkvisitio"
ISRC FITU91000017
INDEX 01 07:44:16
TRACK 04 AUDIO
TITLE "A Panoramic View from the Top Floor"
PERFORMER "Mikko Innanen & Innkvisitio"
ISRC FITU91000018
INDEX 00 14:43:09
INDEX 01 14:44:61
TRACK 05 AUDIO
TITLE "Underground"
PERFORMER "Mikko Innanen & Innkvisitio"
ISRC FITU91000019
INDEX 01 21:49:27
TRACK 06 AUDIO
TITLE "The Grey Adler Returns Again"
PERFORMER "Mikko Innanen & Innkvisitio"
ISRC FITU91000020
INDEX 01 24:19:33
TRACK 07 AUDIO
TITLE "Ardennes at Dawn"
PERFORMER "Mikko Innanen & Innkvisitio"
ISRC FITU91000021
INDEX 00 34:47:40
INDEX 01 34:51:18
TRACK 08 AUDIO
TITLE "Jantaraboon II"
PERFORMER "Mikko Innanen & Innkvisitio"
ISRC FITU91000022
INDEX 01 39:34:25
TRACK 09 AUDIO
TITLE "Detto the Magician"
PERFORMER "Mikko Innanen & Innkvisitio"
ISRC FITU91000023
INDEX 00 43:48:14
INDEX 01 43:50:59
TRACK 10 AUDIO
TITLE "757"
PERFORMER "Mikko Innanen & Innkvisitio"
ISRC FITU91000024
INDEX 01 47:27:25
TRACK 11 AUDIO
TITLE "Jam Afane"
PERFORMER "Mikko Innanen & Innkvisitio"
ISRC FITU91000025
INDEX 00 55:42:67
INDEX 01 55:46:38
Доп. информация: Recorded at Finnvox B Studio in Helsinki on November 2-4, 2009. Mixed at FM Studio in Helsinki. Mastered at DER, Tammisaari, Finland.
 
Состав
Mikko Innanen alto, baritone and soprano saxophones, Indian wooden clarinet, percussion, whistles, toy instruments (01-08, 10-11)
Fredrik Ljungkvist tenor and sopranino saxophones, clarinet (02-04, 06-08, 10-11)
Daniel Erdmann tenor, baritone and soprano saxophones, toy clarinet (02-04, 06-08, 10-11)
Seppo Kantonen synthesizers (01-04, 06-11)
Joonas Riippa drums, percussion, pocket trumpet (01-04, 06-08, 10-11)
20:07
272
Нет комментариев. Ваш будет первым!