Вы используете незарегистрированную версию компонента "Вкладки"!

Поиск

(Free Improvisation) What We Live - Trumpets - 1999, FLAC (tracks+.cue), lossless

(Free Improvisation) What We Live - Trumpets - 1999, FLAC (tracks+.cue), lossless
Треклист:
What We Live - Trumpets
Жанр: Free Improvisation
Страна-производитель диска: Italy
Год издания диска: 1999
Издатель (лейбл): Black Saint Records
Номер по каталогу: BSR 120 189-2
Аудиокодек: FLAC (*.flac)
Тип рипа: tracks+.cue
Битрейт аудио: lossless
Продолжительность: 1:08:56
Источник (релизер): собственный рип с оригинального диска
Наличие сканов в содержимом раздачи: да
Треклист:
01. Second Breath
02. Stone Heated Distance
03. Orbital
04. Soft City
05. Song of Roland
 
Лог создания рипа
Exact Audio Copy V1.0 beta 2 from 29. April 2011
EAC extraction logfile from 23. February 2012, 19:07
What We Live / Trumpets
Used drive : TSSTcorpCDDVDW SH-S222A Adapter: 1 ID: 0
Read mode : Secure
Utilize accurate stream : Yes
Defeat audio cache : Yes
Make use of C2 pointers : No
Read offset correction : 6
Overread into Lead-In and Lead-Out : No
Fill up missing offset samples with silence : Yes
Delete leading and trailing silent blocks : No
Null samples used in CRC calculations : Yes
Used interface : Native Win32 interface for Win NT & 2000
Gap handling : Appended to previous track
Used output format : User Defined Encoder
Selected bitrate : 896 kBit/s
Quality : High
Add ID3 tag : No
Command line compressor : C:\Tool\CD\EAC10\FLAC\FLAC.EXE
Additional command line options : -6 -V -T "ARTIST=%artist%" -T "TITLE=%title%" -T "ALBUM=%albumtitle%" -T "DATE=%year%" -T "TRACKNUMBER=%tracknr%" -T "GENRE=%genre%" -T "COMMENT=%comment%" -T "BAND=%albuminterpret%" -T "COMPOSER=%composer%" %haslyrics%--ta
TOC of the extracted CD
Track | Start | Length | Start sector | End sector
---------------------------------------------------------
1 | 0:00.00 | 20:05.52 | 0 | 90426
2 | 20:05.52 | 16:48.15 | 90427 | 166041
3 | 36:53.67 | 9:22.65 | 166042 | 208256
4 | 46:16.57 | 11:27.05 | 208257 | 259786
5 | 57:43.62 | 11:14.07 | 259787 | 310343
Track 1
Filename C:\! UPLOAD\What We Live - Trumpets (1999) [FLAC] {Black Saint}\01 - Second Breath.wav
Pre-gap length 0:00:02.00
Peak level 99.9 %
Extraction speed 3.4 X
Track quality 100.0 %
Test CRC 00E74CF7
Copy CRC 00E74CF7
Track not present in AccurateRip database
Copy OK
Track 2
Filename C:\! UPLOAD\What We Live - Trumpets (1999) [FLAC] {Black Saint}\02 - The Stone Heated Distance.wav
Pre-gap length 0:00:04.40
Peak level 99.9 %
Extraction speed 3.4 X
Track quality 100.0 %
Test CRC 71ADC820
Copy CRC 71ADC820
Track not present in AccurateRip database
Copy OK
Track 3
Filename C:\! UPLOAD\What We Live - Trumpets (1999) [FLAC] {Black Saint}\03 - Orbital.wav
Pre-gap length 0:00:04.40
Peak level 99.9 %
Extraction speed 3.3 X
Track quality 100.0 %
Test CRC 46207980
Copy CRC 46207980
Track not present in AccurateRip database
Copy OK
Track 4
Filename C:\! UPLOAD\What We Live - Trumpets (1999) [FLAC] {Black Saint}\04 - Soft City.wav
Pre-gap length 0:00:04.40
Peak level 99.9 %
Extraction speed 3.3 X
Track quality 100.0 %
Test CRC 21ED867E
Copy CRC 21ED867E
Track not present in AccurateRip database
Copy OK
Track 5
Filename C:\! UPLOAD\What We Live - Trumpets (1999) [FLAC] {Black Saint}\05 - Song of Roland.wav
Pre-gap length 0:00:04.42
Peak level 99.9 %
Extraction speed 3.3 X
Track quality 100.0 %
Test CRC F98BF870
Copy CRC F98BF870
Track not present in AccurateRip database
Copy OK
None of the tracks are present in the AccurateRip database
No errors occurred
End of status report
---- CUETools DB Plugin V2.1.2
[CTDB TOCID: rzSOhWdoDT3UgVw7rSE1LtUZUyQ-] disk not present in database, Submit result: rzSOhWdoDT3UgVw7rSE1LtUZUyQ- has been uploaded
==== Log checksum 89D702AA2FFBA2C954FC959E6C70EBBE8A54039C4EC4CF93B79AE80511DB7E31 ====
 
Содержание индексной карты (.CUE)
REM GENRE Jazz
REM DATE 1998
REM DISCID 40102905
REM COMMENT "ExactAudioCopy v1.0b2"
PERFORMER "What We Live"
TITLE "Trumpets"
FILE "01 - Second Breath.wav" WAVE
TRACK 01 AUDIO
TITLE "Second Breath"
PERFORMER "What We Live"
INDEX 01 00:00:00
TRACK 02 AUDIO
TITLE "The Stone Heated Distance"
PERFORMER "What We Live"
INDEX 00 20:01:12
FILE "02 - The Stone Heated Distance.wav" WAVE
INDEX 01 00:00:00
TRACK 03 AUDIO
TITLE "Orbital"
PERFORMER "What We Live"
INDEX 00 16:43:50
FILE "03 - Orbital.wav" WAVE
INDEX 01 00:00:00
TRACK 04 AUDIO
TITLE "Soft City"
PERFORMER "What We Live"
INDEX 00 09:18:25
FILE "04 - Soft City.wav" WAVE
INDEX 01 00:00:00
TRACK 05 AUDIO
TITLE "Song of Roland"
PERFORMER "What We Live"
INDEX 00 11:22:38
FILE "05 - Song of Roland.wav" WAVE
INDEX 01 00:00:00
Доп. информация:
Tracks 1 & 2 recorded live at The Outpost, Albuquerque, New Mexico on March 21, 1998
Tracks 3,4,5 recorded live at Western Front, Vancouver, British Columbia, Canada on November 1, 1996
 
Об альбоме (by Steven Loewy)
What We Live has established itself as a nifty West Coast trio that immerses itself in new sounds. A collective effort of bassist Lisle Ellis, drummer Donald Robinson, and saxophonist Lawrence Ochs, the group has contributed some important recordings largely free from the influences of the New York, Chicago, and European scenes. While the trio released an earlier quintet recording with both trumpeters Dave Douglas and Wadada Leo Smith, this one features each trumpeter separately with the group. Not only is it an opportunity to compare the two horns (both of whom are characteristically stellar), but the separate trumpets add immeasurably to the trio sound without cluttering it. The three tracks with Smith seem to work best, and the trumpeter has rarely been heard to better effect. Yet, Douglas' more urbane tone is not to be missed either. Don't forget the outstanding legwork of the trio, which is full of surprises.
 
Состав
Lawrence Ochs - sopranino & tenor saxophones
Lisle Ellis - bass
Donald Robinson - drums
Wadada Leo Smith - trumpet on tracks 1 & 2
Dave Douglas - trumpet on tracks 3, 4, 5
По всем вопросам пишите личное сообщение пользователю M0p94ok.
22:49
187
Нет комментариев. Ваш будет первым!