Вы используете незарегистрированную версию компонента "Вкладки"!

Поиск

(Free Jazz, Free Improvisation) What We Live - Sound Catcher - 2006, FLAC (tracks+.cue), lossless

(Free Jazz, Free Improvisation) What We Live - Sound Catcher - 2006, FLAC (tracks+.cue), lossless
Треклист:
What We Live - Sound Catcher
Жанр: Free Jazz, Free Improvisation
Страна-производитель диска: USA
Год издания диска: 2006
Издатель (лейбл): Fire Museum Records
Номер по каталогу: FM 08
Аудиокодек: FLAC (*.flac)
Тип рипа: tracks+.cue
Битрейт аудио: lossless
Продолжительность: 56:51
Источник (релизер): собственный рип с оригинального диска
Наличие сканов в содержимом раздачи: да
Треклист:
01. Raise Up An Ocean 16:37
02. One (For Lacy) 2:55
03. The Kiss Off 4:29
04. Arvak (The Spirit) 10:43
05. Native Girl With Big Ears 8:02
06. Sound-Chaser 14:04
 
Лог создания рипа
Exact Audio Copy V1.0 beta 2 from 29. April 2011
EAC extraction logfile from 22. February 2012, 19:48
What We Live / Sound Catcher
Used drive : TSSTcorpCDDVDW SH-S222A Adapter: 1 ID: 0
Read mode : Secure
Utilize accurate stream : Yes
Defeat audio cache : Yes
Make use of C2 pointers : No
Read offset correction : 6
Overread into Lead-In and Lead-Out : No
Fill up missing offset samples with silence : Yes
Delete leading and trailing silent blocks : No
Null samples used in CRC calculations : Yes
Used interface : Native Win32 interface for Win NT & 2000
Gap handling : Appended to previous track
Used output format : User Defined Encoder
Selected bitrate : 896 kBit/s
Quality : High
Add ID3 tag : No
Command line compressor : C:\Tool\CD\EAC10\FLAC\FLAC.EXE
Additional command line options : -6 -V -T "ARTIST=%artist%" -T "TITLE=%title%" -T "ALBUM=%albumtitle%" -T "DATE=%year%" -T "TRACKNUMBER=%tracknr%" -T "GENRE=%genre%" -T "COMMENT=%comment%" -T "BAND=%albuminterpret%" -T "COMPOSER=%composer%" %haslyrics%--ta
TOC of the extracted CD
Track | Start | Length | Start sector | End sector
---------------------------------------------------------
1 | 0:00.00 | 16:38.45 | 0 | 74894
2 | 16:38.45 | 2:54.23 | 74895 | 87967
3 | 19:32.68 | 4:29.45 | 87968 | 108187
4 | 24:02.38 | 10:42.66 | 108188 | 156403
5 | 34:45.29 | 8:02.14 | 156404 | 192567
6 | 42:47.43 | 14:04.63 | 192568 | 255930
Track 1
Filename C:\! UPLOAD\What We Live - Sound Catcher () [FLAC] {Fire Museum}\01 - Raise Up An Ocean.wav
Pre-gap length 0:00:02.00
Peak level 78.5 %
Extraction speed 3.1 X
Track quality 100.0 %
Test CRC DC71C321
Copy CRC DC71C321
Track not present in AccurateRip database
Copy OK
Track 2
Filename C:\! UPLOAD\What We Live - Sound Catcher () [FLAC] {Fire Museum}\02 - One (for Lacy).wav
Peak level 44.6 %
Extraction speed 2.2 X
Track quality 99.9 %
Test CRC 8D80DD2C
Copy CRC 8D80DD2C
Track not present in AccurateRip database
Copy OK
Track 3
Filename C:\! UPLOAD\What We Live - Sound Catcher () [FLAC] {Fire Museum}\03 - The Kiss Off.wav
Peak level 56.8 %
Extraction speed 2.5 X
Track quality 99.9 %
Test CRC 581B3ADD
Copy CRC 581B3ADD
Track not present in AccurateRip database
Copy OK
Track 4
Filename C:\! UPLOAD\What We Live - Sound Catcher () [FLAC] {Fire Museum}\04 - Arvak (The Spirit).wav
Peak level 78.5 %
Extraction speed 3.1 X
Track quality 100.0 %
Test CRC CA396F53
Copy CRC CA396F53
Track not present in AccurateRip database
Copy OK
Track 5
Filename C:\! UPLOAD\What We Live - Sound Catcher () [FLAC] {Fire Museum}\05 - Native Girl With Big Ears.wav
Peak level 78.5 %
Extraction speed 3.0 X
Track quality 100.0 %
Test CRC F3B5CD2E
Copy CRC F3B5CD2E
Track not present in AccurateRip database
Copy OK
Track 6
Filename C:\! UPLOAD\What We Live - Sound Catcher () [FLAC] {Fire Museum}\06 - Sound-chaser.wav
Peak level 61.9 %
Extraction speed 3.1 X
Track quality 100.0 %
Test CRC 4F326878
Copy CRC 4F326878
Track not present in AccurateRip database
Copy OK
None of the tracks are present in the AccurateRip database
No errors occurred
End of status report
---- CUETools DB Plugin V2.1.2
[CTDB TOCID: SFCvIn277DM_EszfgI1fk8IhseY-] disk not present in database, Submit result: database access error: Időtúllépés történt a művelet végrehajtása során
==== Log checksum 04C77CFCFC82326096B7EEE5D0D6D92A2FAFA101EF8A426BC1EEF4AA426ACF1B ====
 
Содержание индексной карты (.CUE)
REM GENRE Jazz
REM DATE 2004
REM DISCID 440D5406
REM COMMENT "ExactAudioCopy v1.0b2"
PERFORMER "What We Live"
TITLE "Sound Catcher"
FILE "01 - Raise Up An Ocean.wav" WAVE
TRACK 01 AUDIO
TITLE "Raise Up An Ocean"
PERFORMER "What We Live"
FLAGS DCP
INDEX 01 00:00:00
FILE "02 - One (for Lacy).wav" WAVE
TRACK 02 AUDIO
TITLE "One (for Lacy)"
PERFORMER "What We Live"
FLAGS DCP
INDEX 01 00:00:00
FILE "03 - The Kiss Off.wav" WAVE
TRACK 03 AUDIO
TITLE "The Kiss Off"
PERFORMER "What We Live"
FLAGS DCP
INDEX 01 00:00:00
FILE "04 - Arvak (The Spirit).wav" WAVE
TRACK 04 AUDIO
TITLE "Arvak (The Spirit)"
PERFORMER "What We Live"
FLAGS DCP
INDEX 01 00:00:00
FILE "05 - Native Girl With Big Ears.wav" WAVE
TRACK 05 AUDIO
TITLE "Native Girl With Big Ears"
PERFORMER "What We Live"
FLAGS DCP
INDEX 01 00:00:00
FILE "06 - Sound-chaser.wav" WAVE
TRACK 06 AUDIO
TITLE "Sound-chaser"
PERFORMER "What We Live"
FLAGS DCP
INDEX 01 00:00:00
Доп. информация:
Recorded live on October 16, 2004 in Buffalo, New York at Trinity Episcopal Church
 
Об исполнителе (About Saadet Türköz:)
Saadet Türköz was born in Istanbul in 1961. Due to the political pressures of the Chinese government upon the Turk people in East Turkestan, her parents fled to Istanbul where they settled as Kazakh refugees. They transmitted to her the rich oral and musical traditions of Central Asia. As a child, living in Istanbul, Saadet was fascinated by the Arabic language and the melodious texts of the Koran which gave her the first opportunity to deliberately improvise without paying attention to sense and correctness.
At 20 years of age, she left Istanbul for Switzerland, where she experienced an exciting new world of music: free jazz, improvisation and a refreshing openness towards experimentation that paralleled her unbiased approach to the musical traditions of her origins.
In her performances of Kazakh and Turkish songs, she is looking to transform memory. She seeks to evoke pictures and atmosphere by means of voice and music, which transcends cultural boundaries. Memory is everywhere and every time the same - not changeable - but the expression is different: Individual perception develops a universal impression of the cultural life.
 
Состав
Lisle Ellis - double bass and circuity
Don Robinson - drums
Lawrence Ochs - tenor and sopranino saxophones
Saadet Türköz - voice
Any questions -> support@pro-jazz.com. По всем вопросам пишите -> support@pro-jazz.com
22:50
198
Нет комментариев. Ваш будет первым!