Вы используете незарегистрированную версию компонента "Вкладки"!

Поиск

(Free Improvisation, Free Jazz) What We Live - Never Was - 1998, FLAC (tracks+.cue), lossless

(Free Improvisation, Free Jazz) What We Live - Never Was - 1998, FLAC (tracks+.cue), lossless
Треклист:
What We Live - Never Was
Жанр: Free Improvisation, Free Jazz
Страна-производитель диска: Italy
Год издания диска: 1998
Издатель (лейбл): Black Saint Records
Номер по каталогу: BSR 120 169-2
Аудиокодек: FLAC (*.flac)
Тип рипа: tracks+.cue
Битрейт аудио: lossless
Продолжительность: 1:01:42
Источник (релизер): собственный рип с оригинального диска
Наличие сканов в содержимом раздачи: да
Треклист:
01. Were
02. Will Be
03. Nothing Infinite
04. As Is
05. Mean Season
06. Strength in Numbers
07. Ever After
08. Never Was
 
Лог создания рипа
Exact Audio Copy V1.0 beta 2 from 29. April 2011
EAC extraction logfile from 23. February 2012, 21:00
What We Live / Never Was
Used drive : TSSTcorpCDDVDW SH-S222A Adapter: 1 ID: 0
Read mode : Secure
Utilize accurate stream : Yes
Defeat audio cache : Yes
Make use of C2 pointers : No
Read offset correction : 6
Overread into Lead-In and Lead-Out : No
Fill up missing offset samples with silence : Yes
Delete leading and trailing silent blocks : No
Null samples used in CRC calculations : Yes
Used interface : Native Win32 interface for Win NT & 2000
Gap handling : Appended to previous track
Used output format : User Defined Encoder
Selected bitrate : 896 kBit/s
Quality : High
Add ID3 tag : No
Command line compressor : C:\Tool\CD\EAC10\FLAC\FLAC.EXE
Additional command line options : -6 -V -T "ARTIST=%artist%" -T "TITLE=%title%" -T "ALBUM=%albumtitle%" -T "DATE=%year%" -T "TRACKNUMBER=%tracknr%" -T "GENRE=%genre%" -T "COMMENT=%comment%" -T "BAND=%albuminterpret%" -T "COMPOSER=%composer%" %haslyrics%--ta
TOC of the extracted CD
Track | Start | Length | Start sector | End sector
---------------------------------------------------------
1 | 0:00.00 | 4:16.32 | 0 | 19231
2 | 4:16.32 | 7:07.48 | 19232 | 51304
3 | 11:24.05 | 6:00.22 | 51305 | 78326
4 | 17:24.27 | 11:18.03 | 78327 | 129179
5 | 28:42.30 | 4:18.60 | 129180 | 148589
6 | 33:01.15 | 10:59.17 | 148590 | 198031
7 | 44:00.32 | 5:46.10 | 198032 | 223991
8 | 49:46.42 | 11:58.15 | 223992 | 277856
Track 1
Filename C:\! UPLOAD\What We Live - Never Was (1998) [FLAC] {Black Saint}\01 - Were.wav
Pre-gap length 0:00:02.00
Peak level 98.5 %
Extraction speed 3.2 X
Track quality 100.0 %
Test CRC F301C989
Copy CRC F301C989
Accurately ripped (confidence 1) [6746591F] (AR v1)
Copy OK
Track 2
Filename C:\! UPLOAD\What We Live - Never Was (1998) [FLAC] {Black Saint}\02 - Will Be.wav
Peak level 99.9 %
Extraction speed 3.4 X
Track quality 100.0 %
Test CRC 51717F81
Copy CRC 51717F81
Accurately ripped (confidence 1) [37111161] (AR v1)
Copy OK
Track 3
Filename C:\! UPLOAD\What We Live - Never Was (1998) [FLAC] {Black Saint}\03 - Nothing Infinite.wav
Peak level 98.4 %
Extraction speed 3.4 X
Track quality 100.0 %
Test CRC 8DB59181
Copy CRC 8DB59181
Accurately ripped (confidence 1) [1C89C3E5] (AR v1)
Copy OK
Track 4
Filename C:\! UPLOAD\What We Live - Never Was (1998) [FLAC] {Black Saint}\04 - As Is.wav
Peak level 99.9 %
Extraction speed 3.5 X
Track quality 100.0 %
Test CRC 254C950F
Copy CRC 254C950F
Accurately ripped (confidence 1) [0DDC082A] (AR v1)
Copy OK
Track 5
Filename C:\! UPLOAD\What We Live - Never Was (1998) [FLAC] {Black Saint}\05 - Mean Season.wav
Peak level 48.2 %
Extraction speed 3.2 X
Track quality 100.0 %
Test CRC 304CDBFD
Copy CRC 304CDBFD
Accurately ripped (confidence 1) [1D429DBA] (AR v1)
Copy OK
Track 6
Filename C:\! UPLOAD\What We Live - Never Was (1998) [FLAC] {Black Saint}\06 - Strength In Numbers.wav
Peak level 99.9 %
Extraction speed 3.5 X
Track quality 100.0 %
Test CRC 41A6B83A
Copy CRC 41A6B83A
Accurately ripped (confidence 1) [454F0B43] (AR v1)
Copy OK
Track 7
Filename C:\! UPLOAD\What We Live - Never Was (1998) [FLAC] {Black Saint}\07 - Ever After.wav
Peak level 92.1 %
Extraction speed 3.4 X
Track quality 100.0 %
Test CRC AF6A10AD
Copy CRC AF6A10AD
Accurately ripped (confidence 1) [5EE81FFE] (AR v1)
Copy OK
Track 8
Filename C:\! UPLOAD\What We Live - Never Was (1998) [FLAC] {Black Saint}\08 - Never Was.wav
Peak level 99.2 %
Extraction speed 3.5 X
Track quality 100.0 %
Test CRC 03DB2562
Copy CRC 03DB2562
Accurately ripped (confidence 1) [AE046616] (AR v1)
Copy OK
All tracks accurately ripped
No errors occurred
End of status report
---- CUETools DB Plugin V2.1.2
[CTDB TOCID: 8uYtA6D_HlIh8fOXfrz3gWMv9bg-] disk not present in database, Submit result: 8uYtA6D_HlIh8fOXfrz3gWMv9bg- has been uploaded
==== Log checksum 92A212F2EF2C1FF9DD1204D47EA154BACCCB98300624731B6ABB1BA24AEAA549 ====
 
Содержание индексной карты (.CUE)
REM GENRE Jazz
REM DATE 1998
REM DISCID 7C0E7808
REM COMMENT "ExactAudioCopy v1.0b2"
PERFORMER "What We Live"
TITLE "Never Was"
FILE "01 - Were.wav" WAVE
TRACK 01 AUDIO
TITLE "Were"
PERFORMER "What We Live"
INDEX 01 00:00:00
FILE "02 - Will Be.wav" WAVE
TRACK 02 AUDIO
TITLE "Will Be"
PERFORMER "What We Live"
INDEX 01 00:00:00
FILE "03 - Nothing Infinite.wav" WAVE
TRACK 03 AUDIO
TITLE "Nothing Infinite"
PERFORMER "What We Live"
INDEX 01 00:00:00
FILE "04 - As Is.wav" WAVE
TRACK 04 AUDIO
TITLE "As Is"
PERFORMER "What We Live"
INDEX 01 00:00:00
FILE "05 - Mean Season.wav" WAVE
TRACK 05 AUDIO
TITLE "Mean Season"
PERFORMER "What We Live"
INDEX 01 00:00:00
FILE "06 - Strength In Numbers.wav" WAVE
TRACK 06 AUDIO
TITLE "Strength In Numbers"
PERFORMER "What We Live"
INDEX 01 00:00:00
FILE "07 - Ever After.wav" WAVE
TRACK 07 AUDIO
TITLE "Ever After"
PERFORMER "What We Live"
INDEX 01 00:00:00
FILE "08 - Never Was.wav" WAVE
TRACK 08 AUDIO
TITLE "Never Was"
PERFORMER "What We Live"
INDEX 01 00:00:00
Доп. информация:
Recorded at Sharkbite Studio, Oakland, California on June 13 and July 5, 1996.
 
Об альбоме ( by Scott Yanow)
These eight intriguing free improvisations feature bassist Lisle Ellis, drummer Don Robinson, and Lawrence Ochs (who is best on tenor). The musicians listen closely to each other and seem to form fully formed compositions out of thin air. Although there are some violent moments, attention is paid to exploring a variety of moods, from very lyrical stretches and unaccompanied ballads to intense interplay. Although not quite essential, this outing holds one's interest.
 
Об альбоме (JazzTimes (8/99, p.107))
"...stretches jazz's boundaries through the distillation of its fundamentals....[NEVER WAS 's] cohesiveness proves to be much more than enough to hold closely hold the listener's attention....a surprisingly earthy sound..."
 
Об альбоме (by Ed Hazell)
Never Was is full of details a composer might think of, but executed on the spur of the moment. Robinson's recurring snare-rim motif on "Were" helps unify the opening moments of the track before new material is introduced by Ochs; the redwood solidity of Ellis's ostinatos lend continuity to "Will Be." The trio's collective sense for orchestration is impressive. "As Is" and the title track use several different duo combinations in addition to the full trio to vary the color and texture. All three members improvise melodic or rhythm building blocks that interlock in different ways to create larger structures, and they are careful not to repeat themselves from track to track.
 
Состав
Lawrence Ochs - sopranino & tenor saxophones
Lisle Ellis - bass
Don Robinson - drums
Any questions -> support@pro-jazz.com. По всем вопросам пишите -> support@pro-jazz.com
22:49
166
Нет комментариев. Ваш будет первым!