Вы используете незарегистрированную версию компонента "Вкладки"!

Поиск

(Free Jazz, Free Improvisation) What We Live / Lisle Ellis - What We Live Fo(u)r - 1996, FLAC (tracks+.cue), lossless

(Free Jazz, Free Improvisation) What We Live / Lisle Ellis - What We Live Fo(u)r - 1996, FLAC (tracks+.cue), lossless
Треклист:
What We Live / Lisle Ellis - What We Live Fo(u)r
Жанр: Free Jazz, Free Improvisation
Страна-производитель диска: Italy
Год издания диска: 1996
Издатель (лейбл): Black Saint Records
Номер по каталогу: BSR 120 156-2
Аудиокодек: FLAC (*.flac)
Тип рипа: tracks+.cue
Битрейт аудио: lossless
Продолжительность: 54:30
Источник (релизер): собственный рип с оригинального диска
Наличие сканов в содержимом раздачи: да
Треклист:
01. Addressing The Ancestors 3:05
02. Plus One 11:11
03. Path 7:52
04. Slice 9:01
05. Parima Among The Mountains 12:02
06. Yo(u) 5:24
07. The Sought 5:11
 
Лог создания рипа
Exact Audio Copy V1.0 beta 2 from 29. April 2011
EAC extraction logfile from 22. February 2012, 23:08
What We Live / Fo(u)r
Used drive : TSSTcorpCDDVDW SH-S222A Adapter: 1 ID: 0
Read mode : Secure
Utilize accurate stream : Yes
Defeat audio cache : Yes
Make use of C2 pointers : No
Read offset correction : 6
Overread into Lead-In and Lead-Out : No
Fill up missing offset samples with silence : Yes
Delete leading and trailing silent blocks : No
Null samples used in CRC calculations : Yes
Used interface : Native Win32 interface for Win NT & 2000
Gap handling : Appended to previous track
Used output format : User Defined Encoder
Selected bitrate : 896 kBit/s
Quality : High
Add ID3 tag : No
Command line compressor : C:\Tool\CD\EAC10\FLAC\FLAC.EXE
Additional command line options : -6 -V -T "ARTIST=%artist%" -T "TITLE=%title%" -T "ALBUM=%albumtitle%" -T "DATE=%year%" -T "TRACKNUMBER=%tracknr%" -T "GENRE=%genre%" -T "COMMENT=%comment%" -T "BAND=%albuminterpret%" -T "COMPOSER=%composer%" %haslyrics%--ta
TOC of the extracted CD
Track | Start | Length | Start sector | End sector
---------------------------------------------------------
1 | 0:00.00 | 3:08.27 | 0 | 14126
2 | 3:08.27 | 11:17.37 | 14127 | 64938
3 | 14:25.64 | 7:58.30 | 64939 | 100818
4 | 22:24.19 | 9:08.20 | 100819 | 141938
5 | 31:32.39 | 12:09.22 | 141939 | 196635
6 | 43:41.61 | 5:32.20 | 196636 | 221555
7 | 49:14.06 | 5:18.29 | 221556 | 245434
Track 1
Filename C:\! UPLOAD\What We Live - Fo(u)r (1994) [FLAC] {Black Saint}\01 - Addressing the Ancestors.wav
Pre-gap length 0:00:02.00
Peak level 81.6 %
Extraction speed 2.7 X
Track quality 100.0 %
Test CRC 8C6A169C
Copy CRC 8C6A169C
Accurately ripped (confidence 2) [89301077] (AR v1)
Copy OK
Track 2
Filename C:\! UPLOAD\What We Live - Fo(u)r (1994) [FLAC] {Black Saint}\02 - Plus One.wav
Pre-gap length 0:00:00.02
Peak level 76.1 %
Extraction speed 3.3 X
Track quality 100.0 %
Test CRC EF0FCBE2
Copy CRC EF0FCBE2
Accurately ripped (confidence 2) [1B3E60E3] (AR v1)
Copy OK
Track 3
Filename C:\! UPLOAD\What We Live - Fo(u)r (1994) [FLAC] {Black Saint}\03 - Path.wav
Pre-gap length 0:00:00.02
Peak level 75.3 %
Extraction speed 3.0 X
Track quality 99.9 %
Test CRC E54ECE75
Copy CRC E54ECE75
Accurately ripped (confidence 2) [0CCA279A] (AR v1)
Copy OK
Track 4
Filename C:\! UPLOAD\What We Live - Fo(u)r (1994) [FLAC] {Black Saint}\04 - Slice.wav
Pre-gap length 0:00:00.02
Peak level 98.8 %
Extraction speed 3.3 X
Track quality 100.0 %
Test CRC 3D2476D9
Copy CRC 3D2476D9
Accurately ripped (confidence 2) [A2C9B0B8] (AR v1)
Copy OK
Track 5
Filename C:\! UPLOAD\What We Live - Fo(u)r (1994) [FLAC] {Black Saint}\05 - Parima Among the Mountains.wav
Pre-gap length 0:00:00.02
Peak level 82.3 %
Extraction speed 3.3 X
Track quality 100.0 %
Test CRC 622A5C84
Copy CRC 622A5C84
Accurately ripped (confidence 2) [6A793BC9] (AR v1)
Copy OK
Track 6
Filename C:\! UPLOAD\What We Live - Fo(u)r (1994) [FLAC] {Black Saint}\06 - Yo(u) (for Lyn Hejinian).wav
Pre-gap length 0:00:00.02
Peak level 55.1 %
Extraction speed 3.1 X
Track quality 100.0 %
Test CRC 2490F81B
Copy CRC 2490F81B
Accurately ripped (confidence 2) [F3C79F01] (AR v1)
Copy OK
Track 7
Filename C:\! UPLOAD\What We Live - Fo(u)r (1994) [FLAC] {Black Saint}\07 - The Sought.wav
Pre-gap length 0:00:00.02
Peak level 83.4 %
Extraction speed 2.7 X
Track quality 99.9 %
Test CRC AD8A5B53
Copy CRC AD8A5B53
Accurately ripped (confidence 2) [3669EBFE] (AR v1)
Copy OK
All tracks accurately ripped
No errors occurred
End of status report
---- CUETools DB Plugin V2.1.2
[CTDB TOCID: ok4IFbuqFLZ64aWv1v0H_N3r9xU-] disk not present in database, Submit result: ok4IFbuqFLZ64aWv1v0H_N3r9xU- has been uploaded
==== Log checksum 8FDF65E38334A01A1C82008332C6B645C733BD9C9F2B9F3BC8A61DCF5CAE6EE5 ====
 
Содержание индексной карты (.CUE)
REM GENRE "Free/Avant Jazz"
REM DATE 1994
REM DISCID 680CC807
REM COMMENT "ExactAudioCopy v1.0b2"
PERFORMER "What We Live"
TITLE "Fo(u)r"
FILE "01 - Addressing the Ancestors.wav" WAVE
TRACK 01 AUDIO
TITLE "Addressing the Ancestors"
PERFORMER "What We Live"
FLAGS DCP
INDEX 01 00:00:00
TRACK 02 AUDIO
TITLE "Plus One"
PERFORMER "What We Live"
FLAGS DCP
INDEX 00 03:08:25
FILE "02 - Plus One.wav" WAVE
INDEX 01 00:00:00
TRACK 03 AUDIO
TITLE "Path"
PERFORMER "What We Live"
FLAGS DCP
INDEX 00 11:17:35
FILE "03 - Path.wav" WAVE
INDEX 01 00:00:00
TRACK 04 AUDIO
TITLE "Slice"
PERFORMER "What We Live"
FLAGS DCP
INDEX 00 07:58:28
FILE "04 - Slice.wav" WAVE
INDEX 01 00:00:00
TRACK 05 AUDIO
TITLE "Parima Among the Mountains"
PERFORMER "What We Live"
FLAGS DCP
INDEX 00 09:08:18
FILE "05 - Parima Among the Mountains.wav" WAVE
INDEX 01 00:00:00
TRACK 06 AUDIO
TITLE "Yo(u) (for Lyn Hejinian)"
PERFORMER "What We Live"
FLAGS DCP
INDEX 00 12:09:20
FILE "06 - Yo(u) (for Lyn Hejinian).wav" WAVE
INDEX 01 00:00:00
TRACK 07 AUDIO
TITLE "The Sought"
PERFORMER "What We Live"
FLAGS DCP
INDEX 00 05:32:18
FILE "07 - The Sought.wav" WAVE
INDEX 01 00:00:00
Доп. информация:
Recorded live on June 3, 1994, at Mobius Studio, San Francisco
 
Об альбоме (сборнике)
What We Live is a San Francisco based jazz/ improvised music group formed by bassist/composer Lisle Ellis in 1994. The three regular members are Lisle ELLIS: acoustic bass; Lawrence OCHS, tenor and sopranino saxophones; Don ROBINSON, drums and percussion. The ensemble's formation was inspired by and a direct result of Ellis' work with Ochs and Robinson within the context of The Glenn Spearman Double Trio, which performed and recorded from 1991 until the leader's death in 1998. Ellis' initial vision was to bring together a small group of musicians to investigate concepts central to the tradition of jazz-based improvisation: swing, song form, modalities, etc - in a less explicit manner than the mainstream but in a more emphatically traditional way than offered by the practice of free jazz.
Over a period of time the concept of the trio evolved more towards a collective situation rather than being solely the vision of an individual musician. A group voice or sound has emerged that is immediately recognizable. Compositions by Ellis and Ochs as well as group compositions make up the music.
 
Состав
Lisle Ellis - double bass
Donald Robinson - drums
Larry Ochs - tenor saxophone, sopranino saxophone
Guests:
Glenn Spearman - wood flute, tenor sax on track 1
Miya Masaoka - koto on track 2
William Winant -vibraphone on track 3
Paul Plimley - piano on track 4
India Cooke - violin on track 5
Ben Goldberg - bass clarinet on track 7
Any questions -> support@pro-jazz.com. По всем вопросам пишите -> support@pro-jazz.com
22:48
172
Нет комментариев. Ваш будет первым!