Вы используете незарегистрированную версию компонента "Вкладки"!

Поиск

(Free Improvisation) Uwe Oberg, Christof Thewes, Michael Griener - Lacy Pool - 2009, FLAC (image+.cue), lossless

(Free Improvisation) Uwe Oberg, Christof Thewes, Michael Griener - Lacy Pool - 2009, FLAC (image+.cue), lossless
Треклист:
Uwe Oberg, Christof Thewes, Michael Griener / Lacy Pool
Жанр: Free Improvisation
Страна-производитель диска: Germany
Год издания: 2009
Издатель (лейбл): hatOLOGY
Номер по каталогу: 677
Аудиокодек: FLAC (*.flac)
Тип рипа: image+.cue
Битрейт аудио: lossless
Продолжительность: 50:11
Источник (релизер): cd
Наличие сканов в содержимом раздачи: нет
Треклист:
1 Stamps 7:31
2 The Crust 4:29
3 Blinks 2:37
4 After Hemline 7:44
5 The Dumps 4:55
6 Flakes 4:54
7 The Whammies! 6:00
8 Retreat 4:59
9 Tarte 4:47
10 Raps 2:11
 
Лог создания рипа
Exact Audio Copy V1.0 beta 2 from 29. April 2011
EAC extraction logfile from 28. August 2013, 15:59
Uwe Oberg, Christof Thewes, Michael Griener / Lacy Pool
Used drive : Optiarc DVD RW AD-7170A Adapter: 0 ID: 0
Read mode : Secure
Utilize accurate stream : Yes
Defeat audio cache : Yes
Make use of C2 pointers : No
Read offset correction : 48
Overread into Lead-In and Lead-Out : No
Fill up missing offset samples with silence : Yes
Delete leading and trailing silent blocks : No
Null samples used in CRC calculations : Yes
Used interface : Native Win32 interface for Win NT & 2000
Used output format : User Defined Encoder
Selected bitrate : 320 kBit/s
Quality : High
Add ID3 tag : No
Command line compressor : C:\Program Files\Exact Audio Copy\Flac\flac.exe
Additional command line options : -V -8 -T "Date=%year%" -T "Genre=%genre%" %source%
TOC of the extracted CD
Track | Start | Length | Start sector | End sector
---------------------------------------------------------
1 | 0:00.00 | 7:31.10 | 0 | 33834
2 | 7:31.10 | 4:29.70 | 33835 | 54079
3 | 12:01.05 | 2:37.45 | 54080 | 65899
4 | 14:38.50 | 7:44.60 | 65900 | 100759
5 | 22:23.35 | 4:55.59 | 100760 | 122943
6 | 27:19.19 | 4:54.56 | 122944 | 145049
7 | 32:14.00 | 6:00.50 | 145050 | 172099
8 | 38:14.50 | 4:58.73 | 172100 | 194522
9 | 43:13.48 | 4:47.19 | 194523 | 216066
10 | 48:00.67 | 2:11.08 | 216067 | 225899
Range status and errors
Selected range
Filename K:\ЕАС\Uwe Oberg, Christof Thewes, Michael Griener - Lacy Pool.wav
Peak level 99.9 %
Extraction speed 4.7 X
Range quality 100.0 %
Test CRC FB9CCAF7
Copy CRC FB9CCAF7
Copy OK
No errors occurred
AccurateRip summary
Track 1 accurately ripped (confidence 1) [3C13D8F2] (AR v2)
Track 2 accurately ripped (confidence 1) [221C536D] (AR v2)
Track 3 accurately ripped (confidence 1) [2860FEE0] (AR v2)
Track 4 accurately ripped (confidence 1) [7C3AECBD] (AR v2)
Track 5 accurately ripped (confidence 1) [B91E932A] (AR v2)
Track 6 accurately ripped (confidence 1) [170D755E] (AR v2)
Track 7 accurately ripped (confidence 1) [19F8CFB6] (AR v2)
Track 8 accurately ripped (confidence 1) [0646415F] (AR v2)
Track 9 accurately ripped (confidence 1) [7D1AAF2E] (AR v2)
Track 10 accurately ripped (confidence 1) [234B4320] (AR v2)
All tracks accurately ripped
End of status report
==== Log checksum 2A50F420784CBDAF416283997F38198C443C5DC1BB1236B54D206828242F172D ====
 
Содержание индексной карты (.CUE)
REM GENRE Jazz
REM DATE 2009
REM DISCID 920BC40A
REM COMMENT "ExactAudioCopy v1.0b2"
PERFORMER "Uwe Oberg, Christof Thewes, Michael Griener"
TITLE "Lacy Pool"
FILE "Uwe Oberg, Christof Thewes, Michael Griener - Lacy Pool.flac" WAVE
TRACK 01 AUDIO
TITLE "Stamps"
PERFORMER "Uwe Oberg, Christof Thewes, Michael Griener"
ISRC CH1310901122
INDEX 01 00:00:00
TRACK 02 AUDIO
TITLE "The Crust"
PERFORMER "Uwe Oberg, Christof Thewes, Michael Griener"
ISRC CH1310901123
INDEX 01 07:31:10
TRACK 03 AUDIO
TITLE "Blinks"
PERFORMER "Uwe Oberg, Christof Thewes, Michael Griener"
ISRC CH1310901124
INDEX 01 12:01:05
TRACK 04 AUDIO
TITLE "After Hemline"
PERFORMER "Uwe Oberg, Christof Thewes, Michael Griener"
ISRC CH1310901125
INDEX 01 14:38:50
TRACK 05 AUDIO
TITLE "The Dumps"
PERFORMER "Uwe Oberg, Christof Thewes, Michael Griener"
ISRC CH1310901126
INDEX 01 22:23:35
TRACK 06 AUDIO
TITLE "Flakes"
PERFORMER "Uwe Oberg, Christof Thewes, Michael Griener"
ISRC CH1310901127
INDEX 01 27:19:19
TRACK 07 AUDIO
TITLE "The Whammies!"
PERFORMER "Uwe Oberg, Christof Thewes, Michael Griener"
ISRC CH1310901128
INDEX 01 32:14:00
TRACK 08 AUDIO
TITLE "Retreat"
PERFORMER "Uwe Oberg, Christof Thewes, Michael Griener"
ISRC CH1310901129
INDEX 01 38:14:50
TRACK 09 AUDIO
TITLE "Tarte"
PERFORMER "Uwe Oberg, Christof Thewes, Michael Griener"
ISRC CH1310901130
INDEX 01 43:13:48
TRACK 10 AUDIO
TITLE "Raps"
PERFORMER "Uwe Oberg, Christof Thewes, Michael Griener"
ISRC CH1310901131
INDEX 01 48:00:67
Доп. информация: Recorded November 2006 at Loft in Köln Germany
 
Состав
Drums – Michael Griener
Piano – Uwe Oberg
Trombone – Christof Thewes
По всем вопросам пишите личное сообщение пользователю M0p94ok.
17:33
184
Нет комментариев. Ваш будет первым!