Вы используете незарегистрированную версию компонента "Вкладки"!

Поиск

(Free Improvisation, Avant-garde Jazz) Kyle Bruckmann's Wrack (Jen Clare Paulson, Anton Hatwich, Jason Stein, Tim Daisy) - Cracked Refraction - 2012, FLAC (image+.cue), lossless

(Free Improvisation, Avant-garde Jazz) Kyle Bruckmann's Wrack (Jen Clare Paulson, Anton Hatwich, Jason Stein, Tim Daisy) - Cracked Refraction - 2012, FLAC (image+.cue), lossless
Треклист:
Kyle Bruckmann's Wrack / Cracked Refraction
Жанр: Free Improvisation, Avant-garde Jazz
Страна-производитель диска: US
Год издания: 2012
Издатель (лейбл): Porter Records
Номер по каталогу: PRCD-4061
Аудиокодек: FLAC (*.flac)
Тип рипа: image+.cue
Битрейт аудио: lossless
Продолжительность: 63:30
Источник (релизер): cd
Наличие сканов в содержимом раздачи: нет
Треклист:
1 Exacerbator 5:44
2 Notwithstanding 12:55
3 Ratchetforms 9:13
4 Fair To Middling 8:25
5 The Dishevelator 7:13
6 A Shambles 10:49
7 NJBC 9:09
 
Лог создания рипа
Exact Audio Copy V1.0 beta 2 from 29. April 2011
EAC extraction logfile from 28. August 2013, 17:25
Kyle Bruckmann's Wrack / Cracked Refraction
Used drive : Optiarc DVD RW AD-7170A Adapter: 0 ID: 0
Read mode : Secure
Utilize accurate stream : Yes
Defeat audio cache : Yes
Make use of C2 pointers : No
Read offset correction : 48
Overread into Lead-In and Lead-Out : No
Fill up missing offset samples with silence : Yes
Delete leading and trailing silent blocks : No
Null samples used in CRC calculations : Yes
Used interface : Native Win32 interface for Win NT & 2000
Used output format : User Defined Encoder
Selected bitrate : 320 kBit/s
Quality : High
Add ID3 tag : No
Command line compressor : C:\Program Files\Exact Audio Copy\Flac\flac.exe
Additional command line options : -V -8 -T "Date=%year%" -T "Genre=%genre%" %source%
TOC of the extracted CD
Track | Start | Length | Start sector | End sector
---------------------------------------------------------
1 | 0:00.00 | 5:44.46 | 0 | 25845
2 | 5:44.46 | 12:55.51 | 25846 | 84021
3 | 18:40.22 | 9:13.17 | 84022 | 125513
4 | 27:53.39 | 8:25.10 | 125514 | 163398
5 | 36:18.49 | 7:13.01 | 163399 | 195874
6 | 43:31.50 | 10:48.74 | 195875 | 244548
7 | 54:20.49 | 9:09.37 | 244549 | 285760
Range status and errors
Selected range
Filename K:\ЕАС\Kyle Bruckmann's Wrack - Cracked Refraction.wav
Peak level 98.8 %
Extraction speed 2.2 X
Range quality 100.0 %
Test CRC F6CC7EFC
Copy CRC F6CC7EFC
Copy OK
No errors occurred
AccurateRip summary
Track 1 accurately ripped (confidence 1) [018283F7] (AR v2)
Track 2 accurately ripped (confidence 1) [67553CC2] (AR v2)
Track 3 accurately ripped (confidence 1) [0EC724B8] (AR v2)
Track 4 accurately ripped (confidence 1) [7DF9734F] (AR v2)
Track 5 accurately ripped (confidence 1) [E4F1F8DD] (AR v2)
Track 6 accurately ripped (confidence 1) [D00D588F] (AR v2)
Track 7 accurately ripped (confidence 1) [0DCC4E89] (AR v2)
All tracks accurately ripped
End of status report
==== Log checksum 942B9BB57B60187B018DA94B33EE1AE77F3604C54B41F8F5D1F0A162010B8D3C ====
 
Содержание индексной карты (.CUE)
REM GENRE Jazz
REM DATE 2012
REM DISCID 4C0EE207
REM COMMENT "ExactAudioCopy v1.0b2"
PERFORMER "Kyle Bruckmann's Wrack"
TITLE "Cracked Refraction"
FILE "Kyle Bruckmann's Wrack - Cracked Refraction.flac" WAVE
TRACK 01 AUDIO
TITLE "Exacerbator"
PERFORMER "Kyle Bruckmann's Wrack"
ISRC 000000000000
FLAGS DCP
INDEX 01 00:00:00
TRACK 02 AUDIO
TITLE "Notwithstanding"
PERFORMER "Kyle Bruckmann's Wrack"
ISRC 000000000000
FLAGS DCP
INDEX 01 05:44:46
TRACK 03 AUDIO
TITLE "Ratchetforms"
PERFORMER "Kyle Bruckmann's Wrack"
ISRC 000000000000
FLAGS DCP
INDEX 01 18:40:22
TRACK 04 AUDIO
TITLE "Fair To Middling"
PERFORMER "Kyle Bruckmann's Wrack"
ISRC 000000000000
FLAGS DCP
INDEX 01 27:53:39
TRACK 05 AUDIO
TITLE "The Dishevelator "
PERFORMER "Kyle Bruckmann's Wrack"
ISRC 000000000000
FLAGS DCP
INDEX 01 36:18:49
TRACK 06 AUDIO
TITLE "A Shambles"
PERFORMER "Kyle Bruckmann's Wrack"
ISRC 000000000000
FLAGS DCP
INDEX 01 43:31:50
TRACK 07 AUDIO
TITLE "NJBC"
PERFORMER "Kyle Bruckmann's Wrack"
ISRC 000000000000
FLAGS DCP
INDEX 01 54:20:49
 
Состав
Acoustic Bass – Anton Hatwich
Bass Clarinet – Jason Stein
Drums – Tim Daisy
Oboe – Kyle Bruckmann
Violin – Jen Clare Paulson
По всем вопросам пишите личное сообщение пользователю M0p94ok.
17:33
171
Нет комментариев. Ваш будет первым!