Вы используете незарегистрированную версию компонента "Вкладки"!

Поиск

(Free Jazz) Warren Smith & The Composer's Workshop Ensemble - Warren Smith & The Composer's Workshop Ensemble (2CDs) - 1995 (1973, 1974, 1982), FLAC (tracks+.cue), lossless

(Free Jazz) Warren Smith & The Composer's Workshop Ensemble - Warren Smith & The Composer's Workshop Ensemble (2CDs) - 1995 (1973, 1974, 1982), FLAC (tracks+.cue), lossless
Треклист:
Warren Smith & The Composer's Workshop Ensemble / Warren Smith & The Composer's Workshop Ensemble (2CDs)
Жанр: Free Jazz
Страна-производитель диска: Switzerland
Год издания: 1995 (1973, 1974, 1982)
Издатель (лейбл): Claves Records
Номер по каталогу: 50-1195/2
Аудиокодек: FLAC (*.flac)
Тип рипа: tracks+.cue
Битрейт аудио: lossless
Продолжительность: 59:56 + 1:00:56
Источник (релизер): Max Monteiro
Наличие сканов в содержимом раздачи: да
Треклист:
Disc 1
1. Sub Structure (Coleridge Perkinson) 4:52
2. Hello Julius 4:12
3. Blues for E.L.C. 6:07
4. Lament 10:54
5. Blues by Monk (Thelonious Monk) 11:46
6. Ecorah Suite (Horace Silver) 9:58
7. Cool Eddie 12:07
Disc 2
1. Chisai Sake Kao 7:33
2. Introduction to the Blues 5:29
3. We’ve Been Around 2:56
4. Screamer 6:42
5. I Know the Scenery by Heart 6:55
6. Cricket Song Poem 12:20
7. Love in the Open Suite 19:01
All titles by Warren Smith except where indicated.
 
Лог создания рипа
 
Disc 1
Exact Audio Copy V1.0 beta 3 from 29. August 2011
EAC extraction logfile from 28. August 2013, 11:51
Warren Smith & The Composer's Workshop Ensemble / Warren Smith & The Composer's Workshop Ensemble (Disc 1)
Used drive : SlimtypeeNAU508 5 Adapter: 1 ID: 0
Read mode : Secure
Utilize accurate stream : Yes
Defeat audio cache : Yes
Make use of C2 pointers : No
Read offset correction : 6
Overread into Lead-In and Lead-Out : No
Fill up missing offset samples with silence : Yes
Delete leading and trailing silent blocks : No
Null samples used in CRC calculations : Yes
Used interface : Native Win32 interface for Win NT & 2000
Gap handling : Appended to previous track
Used output format : User Defined Encoder
Selected bitrate : 768 kBit/s
Quality : High
Add ID3 tag : No
Command line compressor : C:\Program Files (x86)\Exact Audio Copy\Flac\flac.exe
Additional command line options : -8 -V -T "ARTIST=%artist%" -T "TITLE=%title%" -T "ALBUM=%albumtitle%" -T "DATE=%year%" -T "TRACKNUMBER=%tracknr%" -T "GENRE=%genre%" -T "PERFORMER=%albuminterpret%" -T "COMPOSER=%composer%" %haslyrics%--tag-from-file=LYRICS="%lyricsfile%"%haslyrics% -T "ALBUMARTIST=%albumartist%" -T "DISCNUMBER=%cdnumber%" -T "TOTALDISCS=%totalcds%" -T "TOTALTRACKS=%numtracks%" -T "COMMENT=%comment%" %source% -o %dest%
TOC of the extracted CD
Track | Start | Length | Start sector | End sector
---------------------------------------------------------
1 | 0:00.32 | 4:51.40 | 32 | 21896
2 | 4:51.72 | 4:11.70 | 21897 | 40791
3 | 9:03.67 | 6:07.13 | 40792 | 68329
4 | 15:11.05 | 10:53.47 | 68330 | 117351
5 | 26:04.52 | 11:46.33 | 117352 | 170334
6 | 37:51.10 | 9:58.10 | 170335 | 215194
7 | 47:49.20 | 12:07.15 | 215195 | 269734
Track 1
Filename C:\EAC rips\01 - Sub Structure.wav
Pre-gap length 0:00:02.32
Peak level 85.3 %
Extraction speed 1.1 X
Track quality 100.0 %
Test CRC 8D45E434
Copy CRC 8D45E434
Accurately ripped (confidence 1) [254FF15A] (AR v2)
Copy OK
Track 2
Filename C:\EAC rips\02 - Hello Julius.wav
Pre-gap length 0:00:03.10
Peak level 54.3 %
Extraction speed 1.2 X
Track quality 100.0 %
Test CRC E07903CC
Copy CRC E07903CC
Accurately ripped (confidence 1) [8E0258CE] (AR v2)
Copy OK
Track 3
Filename C:\EAC rips\03 - Blues for E.L.C..wav
Peak level 93.1 %
Extraction speed 1.3 X
Track quality 99.9 %
Test CRC 79B44361
Copy CRC 79B44361
Accurately ripped (confidence 1) [D36F9952] (AR v2)
Copy OK
Track 4
Filename C:\EAC rips\04 - Lament.wav
Pre-gap length 0:00:02.05
Peak level 60.7 %
Extraction speed 1.7 X
Track quality 100.0 %
Test CRC 8B8586E2
Copy CRC 8B8586E2
Accurately ripped (confidence 1) [1F2E109E] (AR v2)
Copy OK
Track 5
Filename C:\EAC rips\05 - Blues by Monk.wav
Pre-gap length 0:00:05.07
Peak level 78.6 %
Extraction speed 2.0 X
Track quality 100.0 %
Test CRC 8E617CE4
Copy CRC 8E617CE4
Accurately ripped (confidence 1) [1AB6F0F9] (AR v2)
Copy OK
Track 6
Filename C:\EAC rips\06 - Ecorah Suite.wav
Pre-gap length 0:00:01.70
Peak level 99.6 %
Extraction speed 2.2 X
Track quality 100.0 %
Test CRC 3E026BCD
Copy CRC 3E026BCD
Accurately ripped (confidence 1) [31E42D7B] (AR v2)
Copy OK
Track 7
Filename C:\EAC rips\07 - Cool Eddie.wav
Pre-gap length 0:00:02.20
Peak level 98.5 %
Extraction speed 2.4 X
Track quality 100.0 %
Test CRC CE5E22E5
Copy CRC CE5E22E5
Accurately ripped (confidence 1) [9BEB9CCC] (AR v2)
Copy OK
All tracks accurately ripped
No errors occurred
End of status report
---- CUETools DB Plugin V2.1.4
[CTDB TOCID: X9ZJLWErybJJqeMzHjgNxh1uq_A-] disk not present in database
Submit result: X9ZJLWErybJJqeMzHjgNxh1uq_A- has been uploaded
==== Log checksum ACD768F41FD7CF5E95EF7E0F4407C72ED3C1BC49BC9E0F17E0F8A3276782B5B0 ====
 
Disc 2
Exact Audio Copy V1.0 beta 3 from 29. August 2011
EAC extraction logfile from 28. August 2013, 13:22
Warren Smith & The Composer's Workshop Ensemble / Warren Smith & The Composer's Workshop Ensemble (Disc 2)
Used drive : SlimtypeeNAU508 5 Adapter: 1 ID: 0
Read mode : Secure
Utilize accurate stream : Yes
Defeat audio cache : Yes
Make use of C2 pointers : No
Read offset correction : 6
Overread into Lead-In and Lead-Out : No
Fill up missing offset samples with silence : Yes
Delete leading and trailing silent blocks : No
Null samples used in CRC calculations : Yes
Used interface : Native Win32 interface for Win NT & 2000
Gap handling : Appended to previous track
Used output format : User Defined Encoder
Selected bitrate : 768 kBit/s
Quality : High
Add ID3 tag : No
Command line compressor : C:\Program Files (x86)\Exact Audio Copy\Flac\flac.exe
Additional command line options : -8 -V -T "ARTIST=%artist%" -T "TITLE=%title%" -T "ALBUM=%albumtitle%" -T "DATE=%year%" -T "TRACKNUMBER=%tracknr%" -T "GENRE=%genre%" -T "PERFORMER=%albuminterpret%" -T "COMPOSER=%composer%" %haslyrics%--tag-from-file=LYRICS="%lyricsfile%"%haslyrics% -T "ALBUMARTIST=%albumartist%" -T "DISCNUMBER=%cdnumber%" -T "TOTALDISCS=%totalcds%" -T "TOTALTRACKS=%numtracks%" -T "COMMENT=%comment%" %source% -o %dest%
TOC of the extracted CD
Track | Start | Length | Start sector | End sector
---------------------------------------------------------
1 | 0:00.32 | 7:33.18 | 32 | 34024
2 | 7:33.50 | 5:29.07 | 34025 | 58706
3 | 13:02.57 | 2:56.28 | 58707 | 71934
4 | 15:59.10 | 6:41.55 | 71935 | 102064
5 | 22:40.65 | 6:54.45 | 102065 | 133159
6 | 29:35.35 | 12:20.20 | 133160 | 188679
7 | 41:55.55 | 19:01.00 | 188680 | 274254
Track 1
Filename C:\EAC rips\01 - Chisai Sake Kao.wav
Pre-gap length 0:00:02.32
Peak level 78.5 %
Extraction speed 1.3 X
Track quality 100.0 %
Test CRC 2DCEA121
Copy CRC 2DCEA121
Accurately ripped (confidence 1) [B1FD0B0C] (AR v2)
Copy OK
Track 2
Filename C:\EAC rips\02 - Introduction to the Blues.wav
Pre-gap length 0:00:02.43
Peak level 82.1 %
Extraction speed 1.4 X
Track quality 100.0 %
Test CRC A62BC82F
Copy CRC A62BC82F
Accurately ripped (confidence 1) [F119B343] (AR v2)
Copy OK
Track 3
Filename C:\EAC rips\03 - We've Been Around.wav
Pre-gap length 0:00:04.02
Peak level 55.5 %
Extraction speed 1.4 X
Track quality 100.0 %
Test CRC 5EFEE354
Copy CRC 5EFEE354
Accurately ripped (confidence 1) [BA266F59] (AR v2)
Copy OK
Track 4
Filename C:\EAC rips\04 - Screamer.wav
Pre-gap length 0:00:02.53
Peak level 93.3 %
Extraction speed 1.5 X
Track quality 99.9 %
Test CRC D4A49F7C
Copy CRC D4A49F7C
Accurately ripped (confidence 1) [86B3E2C8] (AR v2)
Copy OK
Track 5
Filename C:\EAC rips\05 - I Know the Scenery by Heart.wav
Pre-gap length 0:00:06.55
Peak level 79.3 %
Extraction speed 1.8 X
Track quality 100.0 %
Test CRC A907218F
Copy CRC A907218F
Accurately ripped (confidence 1) [9AE6FD67] (AR v2)
Copy OK
Track 6
Filename C:\EAC rips\06 - Cricket Song Poem.wav
Pre-gap length 0:00:02.43
Peak level 77.5 %
Extraction speed 2.1 X
Track quality 100.0 %
Test CRC 875CAD1E
Copy CRC 875CAD1E
Accurately ripped (confidence 1) [C9C7A17C] (AR v2)
Copy OK
Track 7
Filename C:\EAC rips\07 - Love in the Open Suite.wav
Pre-gap length 0:00:03.73
Peak level 93.4 %
Extraction speed 2.4 X
Track quality 100.0 %
Test CRC 88C4D760
Copy CRC 88C4D760
Accurately ripped (confidence 1) [EECEA4BA] (AR v2)
Copy OK
All tracks accurately ripped
No errors occurred
End of status report
---- CUETools DB Plugin V2.1.4
[CTDB TOCID: uLk08y3c44F5uCRkvpWJXgjtDf8-] disk not present in database
Submit result: uLk08y3c44F5uCRkvpWJXgjtDf8- has been uploaded
==== Log checksum 2D98261B3F40B7B5D4B2442E0E6BD799114933BB20F67F7E18A5EDB90CC8E858 ====
 
Содержание индексной карты (.CUE)
 
Disc 1
REM GENRE Jazz
REM DATE 1995
REM DISCID 5D0E0C07
REM COMMENT "ExactAudioCopy v1.0b3"
PERFORMER "Warren Smith & The Composer's Workshop Ensemble"
TITLE "Warren Smith & The Composer's Workshop Ensemble (Disc 1)"
FILE "01 - Sub Structure.wav" WAVE
TRACK 01 AUDIO
TITLE "Sub Structure"
PERFORMER "Warren Smith & The Composer's Workshop Ensemble"
PREGAP 00:00:32
INDEX 01 00:00:00
TRACK 02 AUDIO
TITLE "Hello Julius"
PERFORMER "Warren Smith & The Composer's Workshop Ensemble"
INDEX 00 04:48:30
FILE "02 - Hello Julius.wav" WAVE
INDEX 01 00:00:00
FILE "03 - Blues for E.L.C..wav" WAVE
TRACK 03 AUDIO
TITLE "Blues for E.L.C."
PERFORMER "Warren Smith & The Composer's Workshop Ensemble"
INDEX 01 00:00:00
TRACK 04 AUDIO
TITLE "Lament"
PERFORMER "Warren Smith & The Composer's Workshop Ensemble"
INDEX 00 06:05:08
FILE "04 - Lament.wav" WAVE
INDEX 01 00:00:00
TRACK 05 AUDIO
TITLE "Blues by Monk"
PERFORMER "Warren Smith & The Composer's Workshop Ensemble"
INDEX 00 10:48:40
FILE "05 - Blues by Monk.wav" WAVE
INDEX 01 00:00:00
TRACK 06 AUDIO
TITLE "Ecorah Suite"
PERFORMER "Warren Smith & The Composer's Workshop Ensemble"
INDEX 00 11:44:38
FILE "06 - Ecorah Suite.wav" WAVE
INDEX 01 00:00:00
TRACK 07 AUDIO
TITLE "Cool Eddie"
PERFORMER "Warren Smith & The Composer's Workshop Ensemble"
INDEX 00 09:55:65
FILE "07 - Cool Eddie.wav" WAVE
INDEX 01 00:00:00
 
Disc 2
REM GENRE Jazz
REM DATE 1995
REM DISCID 640E4807
REM COMMENT "ExactAudioCopy v1.0b3"
PERFORMER "Warren Smith & The Composer's Workshop Ensemble"
TITLE "Warren Smith & The Composer's Workshop Ensemble (Disc 2)"
FILE "01 - Chisai Sake Kao.wav" WAVE
TRACK 01 AUDIO
TITLE "Chisai Sake Kao"
PERFORMER "Warren Smith & The Composer's Workshop Ensemble"
PREGAP 00:00:32
INDEX 01 00:00:00
TRACK 02 AUDIO
TITLE "Introduction to the Blues"
PERFORMER "Warren Smith & The Composer's Workshop Ensemble"
INDEX 00 07:30:50
FILE "02 - Introduction to the Blues.wav" WAVE
INDEX 01 00:00:00
TRACK 03 AUDIO
TITLE "We've Been Around"
PERFORMER "Warren Smith & The Composer's Workshop Ensemble"
INDEX 00 05:25:05
FILE "03 - We've Been Around.wav" WAVE
INDEX 01 00:00:00
TRACK 04 AUDIO
TITLE "Screamer"
PERFORMER "Warren Smith & The Composer's Workshop Ensemble"
INDEX 00 02:53:50
FILE "04 - Screamer.wav" WAVE
INDEX 01 00:00:00
TRACK 05 AUDIO
TITLE "I Know the Scenery by Heart"
PERFORMER "Warren Smith & The Composer's Workshop Ensemble"
INDEX 00 06:35:00
FILE "05 - I Know the Scenery by Heart.wav" WAVE
INDEX 01 00:00:00
TRACK 06 AUDIO
TITLE "Cricket Song Poem"
PERFORMER "Warren Smith & The Composer's Workshop Ensemble"
INDEX 00 06:52:02
FILE "06 - Cricket Song Poem.wav" WAVE
INDEX 01 00:00:00
TRACK 07 AUDIO
TITLE "Love in the Open Suite"
PERFORMER "Warren Smith & The Composer's Workshop Ensemble"
INDEX 00 12:16:22
FILE "07 - Love in the Open Suite.wav" WAVE
INDEX 01 00:00:00
Доп. информация: « Sub Structure », « Lament », « Blues by Monk », Hello Julius », « Introduction to the Blues », « Blues for E.L.C. » and « Ecorah Suite » recorded at in New York City, 1968 & 1969.
« We’ve Been Around », « Screamer », « I Know the Scenery by Heart » and « Love in the Open Suite » recorded in New York City, April 29, 1973.
« Cool Eddie » and « Chisai Sake Kao » recorded in New York City, April 29 & 30, 1977.
« Cricket Song Poem » recorded in New York City, 1982.
Reissue of three LPs from 1973, 1974 and 1982.
 
Состав
Disc 1
1. Sub Structure
Johnny Coles – Trumpet
Jack Jeffers – Bass Trombone
Julius Watkins – French Horn
Al Gibbons – Tenor Sax
Howard Johnson – Baritone Sax, Tuba
Bross Townsend – Piano
Herb Bushler – Bass
Warren Smith – Drums
2. Hello Julius
Johnny Coles – Trumpet
Jack Jeffers – Bass Trombone
Julius Watkins – French Horn
Al Gibbons – Tenor Sax
Howard Johnson – Baritone Sax, Tuba
Bross Townsend – Piano
Herb Bushler – Bass
Warren Smith – Drums
3. Blues for E.L.C.
Jimmy Owens – Trumpet, Fluegelhorn
Jack Jeffers – Bass Trombone
Julius Watkins – French Horn
Al Gibbons – Tenor Sax
Howard Johnson – Baritone Sax, Tuba
Bross Townsend – Piano
Herb Bushler – Bass
Warren Smith – Drums
4. Lament
Johnny Coles – Trumpet
Jack Jeffers – Bass Trombone
Julius Watkins – French Horn
Al Gibbons – Tenor Sax
Howard Johnson – Baritone Sax, Tuba
Bross Townsend – Piano
Herb Bushler – Bass
Warren Smith – Drums
5. Blues by Monk
Johnny Coles – Trumpet
Jack Jeffers – Bass Trombone
Julius Watkins – French Horn
Al Gibbons – Tenor Sax
Howard Johnson – Baritone Sax, Tuba
Bross Townsend – Piano
Herb Bushler – Bass
Warren Smith – Drums
6. Ecorah Suite
Johnny Coles – Trumpet
Jack Jeffers – Bass Trombone
Garnett Brown – Trombone
Al Gibbons – Tenor Sax
Howard Johnson – Baritone Sax, Tuba
Bross Townsend – Piano
Herb Bushler – Bass
Warren Smith – Drums
7. Cool Eddie
Norman Spiller – Trumpet
Jack Jeffers – Bass Trombone
Vincent Chancey – French Horn
Courtney Winter – Saxello
George Barrow – Tenor Sax
Gary Gordon – Baritone Sax
Bross Townsend – Piano
Dave Moore – Bass
Warren Smith – Drums
Omar Clay – Vibes
Kenyatte Abdur-Rahman – Percussion
Disc 2
1. Chisai Sake Kao
Norman Spiller – Trumpet
Jack Jeffers – Bass Trombone
Sharon Freeman – French Horn
Courtney Winter – Saxello
George Barrow – Tenor Sax, Bass Clarinet
Howard Johnson – Baritone Sax, Tuba
Bross Townsend – Piano
Greg Maker – Bass
Omar Clay – Drums
Warren Smith – Percussion, Vocal
2. Introduction to the Blues
Johnny Coles – Trumpet
Jack Jeffers – Bass Trombone
Julius Watkins – French Horn
Al Gibbons – Tenor Sax
Howard Johnson – Baritone Sax, Tuba
Bross Townsend – Piano
Herb Bushler – Bass
Warren Smith – Drums
3. We’ve Been Around
Norman Spiller – Trumpet
Jack Jeffers – Bass Trombone
Sharon Freeman – French Horn
Courtney Winter – Saxello
George Barrow – Tenor Sax, Bass Clarinet
Howard Johnson – Baritone Sax, Tuba
Bross Townsend – Piano
Greg Maker – Bass
Omar Clay – Drums
Warren Smith – Percussion, Vocal
4. Screamer
Norman Spiller – Trumpet
Jack Jeffers – Bass Trombone
Sharon Freeman – French Horn
Courtney Winter – Saxello
George Barrow – Tenor Sax, Bass Clarinet
Howard Johnson – Baritone Sax, Tuba
Bross Townsend – Piano
Greg Maker – Bass
Omar Clay – Drums
Warren Smith – Percussion, Vocal
5. I Know the Scenery by Heart
Norman Spiller – Trumpet
Jack Jeffers – Bass Trombone
Sharon Freeman – French Horn
Courtney Winter – Saxello
George Barrow – Tenor Sax, Bass Clarinet
Howard Johnson – Baritone Sax, Tuba
Bross Townsend – Piano
Greg Maker – Bass
Omar Clay – Drums
Warren Smith – Percussion, Vocal
6. Cricket Song Poem
Norman Spiller – Trumpet
Sharon Freeman – French Horn
Courtney Winter – Saxello
Howard Johnson – Baritone Sax
Bross Townsend – Piano
Greg Maker – Electric Bass
Herb Bushler – Bass
Omar Clay – Drums, Percussion
Warren Smith – Drums, Vocal
Kenyatte Abdur-Rahman – Percussion
7. Love in the Open Suite
Norman Spiller – Trumpet
Jack Jeffers – Bass Trombone
Sharon Freeman – French Horn
Courtney Winter – Saxello
George Barrow – Tenor Sax, Bass Clarinet
Howard Johnson – Baritone Sax, Tuba
Bross Townsend – Piano
Greg Maker – Bass
Omar Clay – Drums
Warren Smith – Percussion, Vocal
По всем вопросам пишите личное сообщение пользователю M0p94ok.
17:34
172
Нет комментариев. Ваш будет первым!