Вы используете незарегистрированную версию компонента "Вкладки"!

Поиск

(Free Improvisation, Unit Records) Yannick Delez Piano Solo - Boreales - 2010, FLAC (tracks+.cue), lossless

(Free Improvisation, Unit Records) Yannick Delez Piano Solo - Boreales - 2010, FLAC (tracks+.cue), lossless
Треклист:
Yannick Délez Piano Solo / Boréales
Жанр: Free Improvisation, Unit Records
Страна-производитель диска: Switzerland
Год издания: 2010
Издатель (лейбл): Unit Records
Номер по каталогу: UTR 4271
Аудиокодек: FLAC (*.flac)
Тип рипа: tracks+.cue
Битрейт аудио: lossless
Продолжительность: 56:03
Источник (релизер): Max Monteiro
Наличие сканов в содержимом раздачи: нет
Треклист:
01. Boréales (Yannick Délez) 5:33
02. Miniature I (Yannick Délez) 0:53
03. All the Things You Are (Jerome Kern) 6:52
04. Miniature II (Yannick Délez) 1:06
05. Vignette (Gary Peacock) 6:44
06. Miniature III (Yannick Délez) 0:45
07. Solar (Miles Davis) 3:27
08. Miniature IV (Yannick Délez) 0:50
09. Les Sages (Yannick Délez) 5:04
10. Miniature V (Yannick Délez) 1:04
11. Odd (Yannick Délez) 4:59
12. Miniature VI (Yannick Délez) 0:58
13. Concave (Yannick Délez) 8:22
14. Miniature VIIa (Yannick Délez) 1:36
15. An den kleinen Radioapparat (Hanns Eisler) 2:59
16. Miniature VIIb (Yannick Délez) 0:55
17. Réminiscence 3:56
Recorded February 7, 8, 9, 2010 at Salle de Musique de La Chaux-de-Fonds / Switzerland.
 
Лог создания рипа
Exact Audio Copy V1.0 beta 3 from 29. August 2011
EAC extraction logfile from 18. May 2013, 15:14
Yannick Délez Piano Solo / Boréales
Used drive : SlimtypeeNAU508 5 Adapter: 1 ID: 0
Read mode : Secure
Utilize accurate stream : Yes
Defeat audio cache : Yes
Make use of C2 pointers : No
Read offset correction : 6
Overread into Lead-In and Lead-Out : No
Fill up missing offset samples with silence : Yes
Delete leading and trailing silent blocks : No
Null samples used in CRC calculations : Yes
Used interface : Native Win32 interface for Win NT & 2000
Gap handling : Appended to previous track
Used output format : User Defined Encoder
Selected bitrate : 768 kBit/s
Quality : High
Add ID3 tag : No
Command line compressor : C:\Program Files (x86)\Exact Audio Copy\Flac\flac.exe
Additional command line options : -8 -V -T "ARTIST=%artist%" -T "TITLE=%title%" -T "ALBUM=%albumtitle%" -T "DATE=%year%" -T "TRACKNUMBER=%tracknr%" -T "GENRE=%genre%" -T "PERFORMER=%albuminterpret%" -T "COMPOSER=%composer%" %haslyrics%--tag-from-file=LYRICS="%lyricsfile%"%haslyrics% -T "ALBUMARTIST=%albumartist%" -T "DISCNUMBER=%cdnumber%" -T "TOTALDISCS=%totalcds%" -T "TOTALTRACKS=%numtracks%" -T "COMMENT=%comment%" %source% -o %dest%
TOC of the extracted CD
Track | Start | Length | Start sector | End sector
---------------------------------------------------------
1 | 0:00.00 | 5:32.39 | 0 | 24938
2 | 5:32.39 | 0:53.11 | 24939 | 28924
3 | 6:25.50 | 6:51.71 | 28925 | 59820
4 | 13:17.46 | 1:06.00 | 59821 | 64770
5 | 14:23.46 | 6:44.02 | 64771 | 95072
6 | 21:07.48 | 0:45.30 | 95073 | 98477
7 | 21:53.03 | 3:26.73 | 98478 | 114000
8 | 25:20.01 | 0:50.37 | 114001 | 117787
9 | 26:10.38 | 5:04.11 | 117788 | 140598
10 | 31:14.49 | 1:04.05 | 140599 | 145403
11 | 32:18.54 | 4:58.42 | 145404 | 167795
12 | 37:17.21 | 0:58.10 | 167796 | 172155
13 | 38:15.31 | 8:21.42 | 172156 | 209772
14 | 46:36.73 | 1:36.23 | 209773 | 216995
15 | 48:13.21 | 2:58.60 | 216996 | 230405
16 | 51:12.06 | 0:54.51 | 230406 | 234506
17 | 52:06.57 | 3:56.14 | 234507 | 252220
Track 1
Filename C:\EAC rips\01 - Boréales.wav
Pre-gap length 0:00:02.00
Peak level 98.8 %
Extraction speed 2.2 X
Track quality 100.0 %
Test CRC E9D9F8FD
Copy CRC E9D9F8FD
Track not present in AccurateRip database
Copy OK
Track 2
Filename C:\EAC rips\02 - Miniature I.wav
Peak level 41.6 %
Extraction speed 1.6 X
Track quality 100.0 %
Test CRC 78D9AE53
Copy CRC 78D9AE53
Track not present in AccurateRip database
Copy OK
Track 3
Filename C:\EAC rips\03 - All the Things You Are.wav
Peak level 72.0 %
Extraction speed 2.7 X
Track quality 100.0 %
Test CRC 88B4E951
Copy CRC 88B4E951
Track not present in AccurateRip database
Copy OK
Track 4
Filename C:\EAC rips\04 - Miniature II.wav
Peak level 95.3 %
Extraction speed 2.0 X
Track quality 100.0 %
Test CRC 31DB951C
Copy CRC 31DB951C
Track not present in AccurateRip database
Copy OK
Track 5
Filename C:\EAC rips\05 - Vignette.wav
Peak level 93.3 %
Extraction speed 2.7 X
Track quality 99.9 %
Test CRC 6F3365CB
Copy CRC 6F3365CB
Track not present in AccurateRip database
Copy OK
Track 6
Filename C:\EAC rips\06 - Miniature III.wav
Peak level 81.4 %
Extraction speed 1.9 X
Track quality 100.0 %
Test CRC 2775F13B
Copy CRC 2775F13B
Track not present in AccurateRip database
Copy OK
Track 7
Filename C:\EAC rips\07 - Solar.wav
Peak level 87.0 %
Extraction speed 3.1 X
Track quality 100.0 %
Test CRC BFE7950A
Copy CRC BFE7950A
Track not present in AccurateRip database
Copy OK
Track 8
Filename C:\EAC rips\08 - Miniature IV.wav
Peak level 56.5 %
Extraction speed 2.1 X
Track quality 100.0 %
Test CRC 61E49D52
Copy CRC 61E49D52
Track not present in AccurateRip database
Copy OK
Track 9
Filename C:\EAC rips\09 - Les Sages.wav
Peak level 98.8 %
Extraction speed 3.5 X
Track quality 100.0 %
Test CRC 7F8C0169
Copy CRC 7F8C0169
Track not present in AccurateRip database
Copy OK
Track 10
Filename C:\EAC rips\10 - Miniature V.wav
Peak level 84.5 %
Extraction speed 1.6 X
Track quality 99.8 %
Test CRC 2D46B935
Copy CRC 2D46B935
Track not present in AccurateRip database
Copy OK
Track 11
Filename C:\EAC rips\11 - Odd.wav
Peak level 72.4 %
Extraction speed 3.7 X
Track quality 100.0 %
Test CRC FFFFAD99
Copy CRC FFFFAD99
Track not present in AccurateRip database
Copy OK
Track 12
Filename C:\EAC rips\12 - Miniature VI.wav
Peak level 50.3 %
Extraction speed 2.5 X
Track quality 100.0 %
Test CRC EF473BDF
Copy CRC EF473BDF
Track not present in AccurateRip database
Copy OK
Track 13
Filename C:\EAC rips\13 - Concave.wav
Peak level 97.7 %
Extraction speed 4.1 X
Track quality 100.0 %
Test CRC 927CC67D
Copy CRC 927CC67D
Track not present in AccurateRip database
Copy OK
Track 14
Filename C:\EAC rips\14 - Miniature VIIa.wav
Peak level 78.1 %
Extraction speed 3.3 X
Track quality 100.0 %
Test CRC E966EAA2
Copy CRC E966EAA2
Track not present in AccurateRip database
Copy OK
Track 15
Filename C:\EAC rips\15 - An den kleinen Radioapparat.wav
Peak level 81.7 %
Extraction speed 3.9 X
Track quality 100.0 %
Test CRC E4806E3E
Copy CRC E4806E3E
Track not present in AccurateRip database
Copy OK
Track 16
Filename C:\EAC rips\16 - Miniature VIIb.wav
Peak level 67.9 %
Extraction speed 2.7 X
Track quality 100.0 %
Test CRC C1FB8CA2
Copy CRC C1FB8CA2
Track not present in AccurateRip database
Copy OK
Track 17
Filename C:\EAC rips\17 - Réminiscence.wav
Peak level 98.8 %
Extraction speed 4.2 X
Track quality 100.0 %
Test CRC 7230AC85
Copy CRC 7230AC85
Track not present in AccurateRip database
Copy OK
None of the tracks are present in the AccurateRip database
No errors occurred
End of status report
---- CUETools DB Plugin V2.1.4
[CTDB TOCID: UmOdAinmiaZybK_haZ5tj_6e0X4-] disk not present in database
Submit result: UmOdAinmiaZybK_haZ5tj_6e0X4- has been uploaded
==== Log checksum B6640072AA462EAB254508B99D64A4DB994B07D91F838A8DCD889AE75B7B0F2A ====
 
Содержание индексной карты (.CUE)
REM GENRE Jazz
REM DATE 2010
REM DISCID 160D2211
REM COMMENT "ExactAudioCopy v1.0b3"
CATALOG 7640114792717
PERFORMER "Yannick Délez Piano Solo"
TITLE "Boréales"
FILE "01 - Boréales.wav" WAVE
TRACK 01 AUDIO
TITLE "Boréales"
PERFORMER "Yannick Délez Piano Solo"
ISRC CH2171027101
FLAGS DCP
INDEX 01 00:00:00
FILE "02 - Miniature I.wav" WAVE
TRACK 02 AUDIO
TITLE "Miniature I"
PERFORMER "Yannick Délez Piano Solo"
ISRC CH2171027102
FLAGS DCP
INDEX 01 00:00:00
FILE "03 - All the Things You Are.wav" WAVE
TRACK 03 AUDIO
TITLE "All the Things You Are"
PERFORMER "Yannick Délez Piano Solo"
ISRC CH2171027103
FLAGS DCP
INDEX 01 00:00:00
FILE "04 - Miniature II.wav" WAVE
TRACK 04 AUDIO
TITLE "Miniature II"
PERFORMER "Yannick Délez Piano Solo"
ISRC CH2171027104
FLAGS DCP
INDEX 01 00:00:00
FILE "05 - Vignette.wav" WAVE
TRACK 05 AUDIO
TITLE "Vignette"
PERFORMER "Yannick Délez Piano Solo"
ISRC CH2171027105
FLAGS DCP
INDEX 01 00:00:00
FILE "06 - Miniature III.wav" WAVE
TRACK 06 AUDIO
TITLE "Miniature III"
PERFORMER "Yannick Délez Piano Solo"
ISRC CH2171027106
FLAGS DCP
INDEX 01 00:00:00
FILE "07 - Solar.wav" WAVE
TRACK 07 AUDIO
TITLE "Solar"
PERFORMER "Yannick Délez Piano Solo"
ISRC CH2171027107
FLAGS DCP
INDEX 01 00:00:00
FILE "08 - Miniature IV.wav" WAVE
TRACK 08 AUDIO
TITLE "Miniature IV"
PERFORMER "Yannick Délez Piano Solo"
ISRC CH2171027108
FLAGS DCP
INDEX 01 00:00:00
FILE "09 - Les Sages.wav" WAVE
TRACK 09 AUDIO
TITLE "Les Sages"
PERFORMER "Yannick Délez Piano Solo"
ISRC CH2171027109
FLAGS DCP
INDEX 01 00:00:00
FILE "10 - Miniature V.wav" WAVE
TRACK 10 AUDIO
TITLE "Miniature V"
PERFORMER "Yannick Délez Piano Solo"
ISRC CH2171027110
FLAGS DCP
INDEX 01 00:00:00
FILE "11 - Odd.wav" WAVE
TRACK 11 AUDIO
TITLE "Odd"
PERFORMER "Yannick Délez Piano Solo"
ISRC CH2171027111
FLAGS DCP
INDEX 01 00:00:00
FILE "12 - Miniature VI.wav" WAVE
TRACK 12 AUDIO
TITLE "Miniature VI"
PERFORMER "Yannick Délez Piano Solo"
ISRC CH2171027112
FLAGS DCP
INDEX 01 00:00:00
FILE "13 - Concave.wav" WAVE
TRACK 13 AUDIO
TITLE "Concave"
PERFORMER "Yannick Délez Piano Solo"
ISRC CH2171027113
FLAGS DCP
INDEX 01 00:00:00
FILE "14 - Miniature VIIa.wav" WAVE
TRACK 14 AUDIO
TITLE "Miniature VIIa"
PERFORMER "Yannick Délez Piano Solo"
ISRC CH2171027114
FLAGS DCP
INDEX 01 00:00:00
FILE "15 - An den kleinen Radioapparat.wav" WAVE
TRACK 15 AUDIO
TITLE "An den kleinen Radioapparat"
PERFORMER "Yannick Délez Piano Solo"
ISRC CH2171027115
FLAGS DCP
INDEX 01 00:00:00
FILE "16 - Miniature VIIb.wav" WAVE
TRACK 16 AUDIO
TITLE "Miniature VIIb"
PERFORMER "Yannick Délez Piano Solo"
ISRC CH2171027116
FLAGS DCP
INDEX 01 00:00:00
FILE "17 - Réminiscence.wav" WAVE
TRACK 17 AUDIO
TITLE "Réminiscence"
PERFORMER "Yannick Délez Piano Solo"
ISRC CH2171027117
FLAGS DCP
INDEX 01 00:00:00
Any questions -> support@pro-jazz.com. По всем вопросам пишите -> support@pro-jazz.com
13:29
163
Нет комментариев. Ваш будет первым!