Вы используете незарегистрированную версию компонента "Вкладки"!

Поиск

(Avant-Garde Jazz, Noise, Free Improvisation) Borbetomagus - Borbetomagus - 1980, FLAC (tracks+.cue), lossless

(Avant-Garde Jazz, Noise, Free Improvisation) Borbetomagus - Borbetomagus - 1980, FLAC (tracks+.cue), lossless
Треклист:
Borbetomagus / Borbetomagus
Жанр: Avant-Garde Jazz, Noise, Free Improvisation
Страна-производитель диска: US
Год издания: 1995
Издатель (лейбл): Agaric Records
Номер по каталогу: Agaric 1980
Страна: US
Аудиокодек: FLAC (*.flac)
Тип рипа: tracks+.cue
Битрейт аудио: lossless
Продолжительность: 48:01
Источник (релизер): waffles.fm
Наличие сканов в содержимом раздачи:
Треклист:
1 Concordat 1 12:13
2 Concordat 2 5:48
3 Concordat 3 5:19
4 Concordat 4 9:28
5 Concordat 5 7:34
6 The Lost Concordat 7:55
 
Лог создания рипа
Exact Audio Copy V0.99 prebeta 4 from 23. January 2008
EAC extraction logfile from 20. January 2009, 21:59
Borbetomagus / Borbetomagus
Used drive : HL-DT-STDVDRAM GSA-H10N Adapter: 1 ID: 0
Read mode : Secure
Utilize accurate stream : Yes
Defeat audio cache : Yes
Make use of C2 pointers : No
Read offset correction : 667
Overread into Lead-In and Lead-Out : No
Fill up missing offset samples with silence : Yes
Delete leading and trailing silent blocks : No
Null samples used in CRC calculations : Yes
Used interface : Native Win32 interface for Win NT & 2000
Gap handling : Appended to previous track
Used output format : User Defined Encoder
Selected bitrate : 320 kBit/s
Quality : High
Add ID3 tag : No
Command line compressor : C:\Program Files\Exact Audio Copy\Flac\flac.exe
Additional command line options : -V -8 -T "artist=%a" -T "title=%t" -T "album=%g" -T "date=%y" -T "tracknumber=%n" -T "genre=%m" %s
TOC of the extracted CD
Track | Start | Length | Start sector | End sector
---------------------------------------------------------
1 | 0:00.00 | 12:14.50 | 0 | 55099
2 | 12:14.50 | 5:52.50 | 55100 | 81549
3 | 18:07.25 | 5:21.37 | 81550 | 105661
4 | 23:28.62 | 9:34.00 | 105662 | 148711
5 | 33:02.62 | 7:41.13 | 148712 | 183299
6 | 40:44.00 | 7:17.00 | 183300 | 216074
Track 1
Filename E:\My Documents\Flac\ Borbetomagus - 1995 - Borbetomagus\01 - Concordat 1 .wav
Pre-gap length 0:00:02.00
Peak level 45.6 %
Track quality 100.0 %
Test CRC 790EC179
Copy CRC 790EC179
Track not present in AccurateRip database
Copy OK
Track 2
Filename E:\My Documents\Flac\ Borbetomagus - 1995 - Borbetomagus\02 - Concordat 2 .wav
Peak level 42.5 %
Track quality 99.9 %
Test CRC CFB5A034
Copy CRC CFB5A034
Track not present in AccurateRip database
Copy OK
Track 3
Filename E:\My Documents\Flac\ Borbetomagus - 1995 - Borbetomagus\03 - Concordat 3 .wav
Pre-gap length 0:00:02.66
Peak level 40.5 %
Track quality 100.0 %
Test CRC AE378545
Copy CRC AE378545
Track not present in AccurateRip database
Copy OK
Track 4
Filename E:\My Documents\Flac\ Borbetomagus - 1995 - Borbetomagus\04 - Concordat 4 .wav
Pre-gap length 0:00:01.00
Peak level 42.5 %
Track quality 100.0 %
Test CRC 6097D9B0
Copy CRC 6097D9B0
Track not present in AccurateRip database
Copy OK
Track 5
Filename E:\My Documents\Flac\ Borbetomagus - 1995 - Borbetomagus\05 - Concordat 5 .wav
Pre-gap length 0:00:01.49
Peak level 53.6 %
Track quality 100.0 %
Test CRC 639F24EB
Copy CRC 639F24EB
Track not present in AccurateRip database
Copy OK
Track 6
Filename E:\My Documents\Flac\ Borbetomagus - 1995 - Borbetomagus\06 - The Lost Concordat .wav
Pre-gap length 0:00:05.17
Peak level 50.8 %
Track quality 99.9 %
Test CRC 142BD970
Copy CRC 142BD970
Track not present in AccurateRip database
Copy OK
None of the tracks are present in the AccurateRip database
No errors occurred
End of status report
 
Содержание индексной карты (.CUE)
REM GENRE Noise
REM DATE 1995
REM DISCID 500B4106
REM COMMENT "ExactAudioCopy v0.99pb4"
CATALOG 0000000000000
PERFORMER "Borbetomagus"
TITLE "Borbetomagus"
FILE "01 - Concordat 1 .wav" WAVE
TRACK 01 AUDIO
TITLE "Concordat 1"
PERFORMER "Borbetomagus"
INDEX 01 00:00:00
FILE "02 - Concordat 2 .wav" WAVE
TRACK 02 AUDIO
TITLE "Concordat 2"
PERFORMER "Borbetomagus"
INDEX 01 00:00:00
TRACK 03 AUDIO
TITLE "Concordat 3"
PERFORMER "Borbetomagus"
INDEX 00 05:50:00
FILE "03 - Concordat 3 .wav" WAVE
INDEX 01 00:00:00
TRACK 04 AUDIO
TITLE "Concordat 4"
PERFORMER "Borbetomagus"
INDEX 00 05:20:37
FILE "04 - Concordat 4 .wav" WAVE
INDEX 01 00:00:00
TRACK 05 AUDIO
TITLE "Concordat 5"
PERFORMER "Borbetomagus"
INDEX 00 09:32:38
FILE "05 - Concordat 5 .wav" WAVE
INDEX 01 00:00:00
TRACK 06 AUDIO
TITLE "The Lost Concordat"
PERFORMER "Borbetomagus"
INDEX 00 07:36:00
FILE "06 - The Lost Concordat .wav" WAVE
INDEX 01 00:00:00
 
Лог проверки качества
d:\>d:\aucdtect -d/-m0 d:\zzz\*.wav
auCDtect: CD records authenticity detector, version 0.8.2
Copyright (c) 2004 Oleg Berngardt. All rights reserved.
Copyright (c) 2004 Alexander Djourik. All rights reserved.
------------------------------------------------------------
Processing file: [01. Concordat 1.wav]
------------------------------------------------------------
This track looks like CDDA with probability 100%
------------------------------------------------------------
Processing file: [02. Concordat 2.wav]
------------------------------------------------------------
This track looks like CDDA with probability 100%
------------------------------------------------------------
Processing file: [03. Concordat 3.wav]
------------------------------------------------------------
This track looks like CDDA with probability 100%
------------------------------------------------------------
Processing file: [04. Concordat 4.wav]
------------------------------------------------------------
This track looks like CDDA with probability 100%
------------------------------------------------------------
Processing file: [05. Concordat 5.wav]
------------------------------------------------------------
This track looks like CDDA with probability 100%
------------------------------------------------------------
Processing file: [06. The Lost Concordat.wav]
------------------------------------------------------------
This track looks like CDDA with probability 99%
------------------------------------------------------------
Final Conclusion:
------------------------------------------------------------
These tracks looks like CDDA with probability 100%
Доп. информация:
 
AMG Review
This is the very first Borbetomagus recording dating from 1980, finally released on CD in 1995. This was when the band utilized the electronic treatments of Brian Doherty to add depth and dimension to the instrumental attack of saxophonists Don Dietrich and Jim Sauter, and the guitar histrionics of Donald Miller. This is a very different band than the one that emerged a few years later, full of stark raving beauty and rage as a trio. The pieces here are all called "Concordat," and numbered except for the final one, "The Last Concordat," which was not included on the original LP. Here, when played at loud volume, subtly changing colors, tonalities, and shapes enter into sonorific relationships with one another and transform one another via dynamics and phrasing. All of the music here is based on the idea of dissonance as being the only true door to consonance and the notion of musical instruments themselves being capable of a far more credible form of musique concrete than electronic tape on its own. Haunting and hunted soundscapes entwine with one another and become beautiful in their distortion and disfigurement. There is a kind of perverse lyricism in the Borbetomagus sense of drama here, and it works so well that it's hard, at times, to believe that there aren't more improvisers that picked up on their aesthetic. This is a very fine album, and easily the band's most accessible -- though accessible it isn't.
 
Состав
Electronics [Live] – Brian Doherty
Guitar – Donald Miller
Saxophone – Don Dietrich, Jim Sauter
Any questions -> support@pro-jazz.com. По всем вопросам пишите -> support@pro-jazz.com
13:29
301
Нет комментариев. Ваш будет первым!