Вы используете незарегистрированную версию компонента "Вкладки"!

Поиск

(Free Improvisation, Unit Records) Marcos Jimenez Trio - Awakening - 2012, FLAC (tracks+.cue), lossless

(Free Improvisation, Unit Records) Marcos Jimenez Trio - Awakening - 2012, FLAC (tracks+.cue), lossless
Треклист:
Marcos Jimenez Trio / Awakening
Жанр: Free Improvisation, Unit Records
Страна-производитель диска: Switzerland
Год издания: 2012
Издатель (лейбл): Unit Records
Номер по каталогу: UTR 4418
Аудиокодек: FLAC (*.flac)
Тип рипа: tracks+.cue
Битрейт аудио: lossless
Продолжительность: 40:21
Источник (релизер): Max Monteiro
Наличие сканов в содержимом раздачи: нет
Треклист:
1. Besame Mucho (Consuelo Velàzquez) 9:49
2. Lena em Novembro (Marcos Jimenez) 6:35
3. Do Waltz (Marcos Jimenez) 5:14
4. The Awakening (Marcos Jimenez) 5:47
5. Darn That Dream (Jimmy Van Heusen / Edgar De Lange) 7:25
6. Song to Fred Hersch (Marcos Jimenez) 8:47
7. You Don’t Know What Love Is (Don Raye / Gene de Paul) 5:46
8. No Moon at All (Dave Mann / Redd Eva) 5:29
 
Лог создания рипа
Exact Audio Copy V1.0 beta 3 from 29. August 2011
EAC extraction logfile from 14. May 2013, 18:02
Marcos Jimenez Trio / Awakening
Used drive : SlimtypeeNAU508 5 Adapter: 1 ID: 0
Read mode : Secure
Utilize accurate stream : Yes
Defeat audio cache : Yes
Make use of C2 pointers : No
Read offset correction : 6
Overread into Lead-In and Lead-Out : No
Fill up missing offset samples with silence : Yes
Delete leading and trailing silent blocks : No
Null samples used in CRC calculations : Yes
Used interface : Native Win32 interface for Win NT & 2000
Gap handling : Appended to previous track
Used output format : User Defined Encoder
Selected bitrate : 768 kBit/s
Quality : High
Add ID3 tag : No
Command line compressor : C:\Program Files (x86)\Exact Audio Copy\Flac\flac.exe
Additional command line options : -8 -V -T "ARTIST=%artist%" -T "TITLE=%title%" -T "ALBUM=%albumtitle%" -T "DATE=%year%" -T "TRACKNUMBER=%tracknr%" -T "GENRE=%genre%" -T "PERFORMER=%albuminterpret%" -T "COMPOSER=%composer%" %haslyrics%--tag-from-file=LYRICS="%lyricsfile%"%haslyrics% -T "ALBUMARTIST=%albumartist%" -T "DISCNUMBER=%cdnumber%" -T "TOTALDISCS=%totalcds%" -T "TOTALTRACKS=%numtracks%" -T "COMMENT=%comment%" %source% -o %dest%
TOC of the extracted CD
Track | Start | Length | Start sector | End sector
---------------------------------------------------------
1 | 0:00.00 | 9:49.34 | 0 | 44208
2 | 9:49.34 | 6:35.25 | 44209 | 73858
3 | 16:24.59 | 5:13.53 | 73859 | 97386
4 | 21:38.37 | 5:47.27 | 97387 | 123438
5 | 27:25.64 | 7:24.69 | 123439 | 156807
6 | 34:50.58 | 8:47.27 | 156808 | 196359
7 | 43:38.10 | 5:46.06 | 196360 | 222315
8 | 49:24.16 | 5:29.19 | 222316 | 247009
Track 1
Filename C:\EAC rips\01 - Besame Mucho.wav
Pre-gap length 0:00:02.00
Peak level 83.4 %
Extraction speed 1.2 X
Track quality 100.0 %
Test CRC 637FA58E
Copy CRC 637FA58E
Track not present in AccurateRip database
Copy OK
Track 2
Filename C:\EAC rips\02 - Lena em Novembro.wav
Peak level 80.9 %
Extraction speed 1.4 X
Track quality 100.0 %
Test CRC 80563C4A
Copy CRC 80563C4A
Track not present in AccurateRip database
Copy OK
Track 3
Filename C:\EAC rips\03 - Do Waltz.wav
Peak level 88.2 %
Extraction speed 1.4 X
Track quality 99.9 %
Test CRC B7977E69
Copy CRC B7977E69
Track not present in AccurateRip database
Copy OK
Track 4
Filename C:\EAC rips\04 - The Awakening.wav
Peak level 96.1 %
Extraction speed 1.7 X
Track quality 100.0 %
Test CRC 03E9993E
Copy CRC 03E9993E
Track not present in AccurateRip database
Copy OK
Track 5
Filename C:\EAC rips\05 - Darn That Dream.wav
Peak level 73.1 %
Extraction speed 1.9 X
Track quality 100.0 %
Test CRC E6A0E920
Copy CRC E6A0E920
Track not present in AccurateRip database
Copy OK
Track 6
Filename C:\EAC rips\06 - Song to Fred Hersch.wav
Peak level 79.7 %
Extraction speed 2.1 X
Track quality 100.0 %
Test CRC F0CA6702
Copy CRC F0CA6702
Track not present in AccurateRip database
Copy OK
Track 7
Filename C:\EAC rips\07 - You Don't Know What Love Is.wav
Peak level 100.0 %
Extraction speed 2.1 X
Track quality 100.0 %
Test CRC 6AA9BD79
Copy CRC 6AA9BD79
Track not present in AccurateRip database
Copy OK
Track 8
Filename C:\EAC rips\08 - No Moon At All.wav
Peak level 73.3 %
Extraction speed 2.2 X
Track quality 100.0 %
Test CRC BF587384
Copy CRC BF587384
Track not present in AccurateRip database
Copy OK
None of the tracks are present in the AccurateRip database
No errors occurred
End of status report
---- CUETools DB Plugin V2.1.4
[CTDB TOCID: FvSTFZFZ9vLejtCLTQRJ51qE9Po-] disk not present in database
Submit result: FvSTFZFZ9vLejtCLTQRJ51qE9Po- has been uploaded
==== Log checksum 2C2FA1DEFF447D119AF14ADA5E544EAB5BB30AAF803C9A2FF1F8D42E288CEFF9 ====
 
Содержание индексной карты (.CUE)
REM GENRE Jazz
REM DATE 2012
REM DISCID 6C0CDD08
REM COMMENT "ExactAudioCopy v1.0b3"
PERFORMER "Marcos Jimenez Trio"
TITLE "Awakening"
FILE "01 - Besame Mucho.wav" WAVE
TRACK 01 AUDIO
TITLE "Besame Mucho"
PERFORMER "Marcos Jimenez Trio"
INDEX 01 00:00:00
FILE "02 - Lena em Novembro.wav" WAVE
TRACK 02 AUDIO
TITLE "Lena em Novembro"
PERFORMER "Marcos Jimenez Trio"
INDEX 01 00:00:00
FILE "03 - Do Waltz.wav" WAVE
TRACK 03 AUDIO
TITLE "Do Waltz"
PERFORMER "Marcos Jimenez Trio"
INDEX 01 00:00:00
FILE "04 - The Awakening.wav" WAVE
TRACK 04 AUDIO
TITLE "The Awakening"
PERFORMER "Marcos Jimenez Trio"
INDEX 01 00:00:00
FILE "05 - Darn That Dream.wav" WAVE
TRACK 05 AUDIO
TITLE "Darn That Dream"
PERFORMER "Marcos Jimenez Trio"
INDEX 01 00:00:00
FILE "06 - Song to Fred Hersch.wav" WAVE
TRACK 06 AUDIO
TITLE "Song to Fred Hersch"
PERFORMER "Marcos Jimenez Trio"
INDEX 01 00:00:00
FILE "07 - You Don't Know What Love Is.wav" WAVE
TRACK 07 AUDIO
TITLE "You Don't Know What Love Is"
PERFORMER "Marcos Jimenez Trio"
INDEX 01 00:00:00
FILE "08 - No Moon at All.wav" WAVE
TRACK 08 AUDIO
TITLE "No Moon at All"
PERFORMER "Marcos Jimenez Trio"
INDEX 01 00:00:00
Доп. информация: Recorded, mixed and mastered on the 5th of July 2012 and the 8th of September 2012 at Blend Studio Switzerland.
 
Состав
Marcos Jimenez – Piano
Massimo Pinca – Doublebass
Luigi Galati – Drums
Any questions -> support@pro-jazz.com. По всем вопросам пишите -> support@pro-jazz.com
13:30
147
Нет комментариев. Ваш будет первым!