Вы используете незарегистрированную версию компонента "Вкладки"!

Поиск

(Free Jazz, CIMP) Paul Smoker Quartet - Standard Deviations - 1999, APE (image+.cue), lossless

(Free Jazz, CIMP) Paul Smoker Quartet - Standard Deviations - 1999, APE (image+.cue), lossless
Треклист:
Paul Smoker Quartet / Standard Deviations
Жанр: Free Jazz, CIMP
Страна-производитель диска: USA
Год издания: 1999
Издатель (лейбл): CIMP
Номер по каталогу: 186
Страна: USA
Аудиокодек: APE (*.ape)
Тип рипа: image+.cue
Битрейт аудио: lossless
Продолжительность: 01:11:52
Источник (релизер): rutracker (M@l)
Наличие сканов в содержимом раздачи: да
Треклист:
01. Beyond the Blue Horizon
02. Poinciana
03. You Better Go Now
04. By Myself
05. Speak Low
06. Stormy Weather / When the Sun Comes Out
Состав:
Paul Smoker (trumpet, flugelhorn)
Steve Salerno (guitar)
Tomas Ulrich (cello)
Jay Rosen (drums)
Rec. Sept 22-23, 1998.
 
Об исполнителе
biography by Chris Kelsey
A compelling yet undersung avant-garde trumpeter, Smoker is a master of the instrument's expressive possibilities -- the growls, wahs, and other tonal manipulations that have come to define its use in jazz. Smoker's playing is not unduly effects-laden, however; he possesses a well-developed conventional technique as well. Smoker was raised in Davenport, IA, hometown to another jazz trumpeter of some distinction, Bix Beiderbecke. Like Bix, Smoker made his way to Chicago to play jazz; in the '60s he played in various groups, including a big band led by Bobby Christian. Smoker studied both jazz and classical music in his youth. He earned a doctorate in music from the University of Iowa in 1974. Smoker has spent a great deal of time teaching at Coe College in Iowa (from 1976 to 1990) and also the University of Iowa, University of Northern Iowa, and University of Wisconsin-Oshkosh. Even while based in the Midwest, Smoker managed to attain a measure of notice; during the '80s he recorded several albums for the Sound Aspects and Hat Art labels with a trio that included bassist Ron Rohovit and drummer Phil Haynes. Smoker also participated in various projects initiated by Anthony Braxton during the '80s and '90s, and played as sideman on albums by drummer Gregg Bendian, percussionist Damon Short, saxophonist Randy McKean, and Haynes, among others. With Haynes, bassist Drew Gress, and saxophonist Ellery Eskelin, Smoker formed Joint Venture, a cooperative quartet that released three albums on Enja in the late '80s and early '90s. In the mid- to late '90s, Smoker began recording for the C.I.M.P. label, leading dates that included such musicians as multi-reedist Vinny Golia, bassist Ken Filiano, guitarist Steve Salerno, and Haynes. Apart from his jazz work, Smoker has played a great deal of contemporary classical music; he's been a member of the University of Iowa Center for New Music, the Iowa Brass Quintet, and the new music ensemble SOMA. Since 1990, Smoker has lived in upstate New York, where he teaches privately and plays professionally.
 
Об альбоме
review by Steve Loewy
Trumpeter Paul Smoker leads his quartet through six standards in characteristic deconstructive fashion, crushing and compressing harmonies while reinventing the entire nature of the song. You would hardly recognize "You Better Go Now" or "Speak Low" under Smoker's scalpel, but the results are exquisite, if not classic. The trumpeter gargles his way softly through the Kurt Weill tune, while elsewhere he can sputter a line of 16th notes as convincingly as a child blowing bubbles. Smoker plays it down and dirty, his influences reaching way back, yet his concept is about as forward looking as can be imagined. Not only is his radical style innovative, but it is thoroughly enjoyable. The strings of electric guitarist Steve Salerno and cellist Tomas Ulrich add immeasurably to the mix, the former sounding at times like an organ, the latter like birds in flight. Drummer Jay Rosen has his fill just following the rapidly changing tempos and timbres -- which he does with finesse.
 
Лог создания рипа
Exact Audio Copy V0.99 prebeta 4 from 23. January 2008
Отчёт EAC об извлечении, выполненном 15. ноября 2008, 21:41
Unknown Artist / Unknown Title
Дисковод: Optiarc DVD RW AD-7173A Adapter: 1 ID: 0
Режим чтения : Достоверность
Использование точного потока : Да
Отключение кэша аудио : Да
Использование указателей C2 : Нет
Коррекция смещения при чтении : 48
Способность читать области Lead-in и Lead-out : Нет
Заполнение пропущенных сэмплов тишиной : Да
Удаление блоков с тишиной в начале и конце : Нет
При вычислениях CRC использовались нулевые сэмплы : Да
Интерфейс : Встроенный Win32-интерфейс для Win NT/2000
Выходной формат : Внутренние WAV-операции
Формат сэмплов : 44.100 Гц; 16 бит; стерео
TOC извлечённого CD
Трек | Старт | Длительность | Начальный сектор | Конечный сектор
---------------------------------------------------------------------
1 | 0:00.00 | 7:24.32 | 0 | 33331
2 | 7:24.32 | 11:27.45 | 33332 | 84901
3 | 18:52.02 | 8:32.72 | 84902 | 123373
4 | 27:24.74 | 8:24.61 | 123374 | 161234
5 | 35:49.60 | 14:56.10 | 161235 | 228444
6 | 50:45.70 | 21:06.16 | 228445 | 323410
Характеристики диапазона извлечения и сообщения об ошибках
Выбранный диапазон
Имя файла I:\APE\LOSSLESS\Paul Smoker - Standard Deviations\Unknown Artist - Unknown Title.wav
Пиковый уровень 100.0 %
Качество диапазона 100.0 %
CRC копии A085DD73
Копирование... OK
Ошибок не произошло
Конец отчёта
 
Содержание индексной карты (.CUE) с заполненными тегами
REM DISCID 4110D806
REM COMMENT ExactAudioCopy v0.99pb4
PERFORMER "Paul Smoker"
TITLE "Standard Deviations"
FILE "Paul Smoker - Standard Deviations.ape" WAVE
TRACK 01 AUDIO
TITLE "Beyond the Blue Horizon"
INDEX 01 00:00:00
TRACK 02 AUDIO
TITLE "Poinciana"
INDEX 00 07:20:50
INDEX 01 07:24:32
TRACK 03 AUDIO
TITLE "You Better Go Now"
INDEX 00 18:49:20
INDEX 01 18:52:02
TRACK 04 AUDIO
TITLE "By Myself"
INDEX 00 27:22:17
INDEX 01 27:24:74
TRACK 05 AUDIO
TITLE "Speak Low"
INDEX 00 35:47:03
INDEX 01 35:49:60
TRACK 06 AUDIO
TITLE "Stormy Weather/When the Sun Comes Out"
INDEX 00 50:43:13
INDEX 01 50:45:70
 
Содержание оригинальной индексной карты (.CUE) (в раздачу не включил)
REM DISCID 4110D806
REM COMMENT "ExactAudioCopy v0.99pb4"
PERFORMER "Unknown Artist"
TITLE "Unknown Title"
FILE "Unknown Artist - Unknown Title.wav" WAVE
TRACK 01 AUDIO
TITLE "Track01"
PERFORMER "Unknown Artist"
INDEX 01 00:00:00
TRACK 02 AUDIO
TITLE "Track02"
PERFORMER "Unknown Artist"
INDEX 00 07:20:50
INDEX 01 07:24:32
TRACK 03 AUDIO
TITLE "Track03"
PERFORMER "Unknown Artist"
INDEX 00 18:49:20
INDEX 01 18:52:02
TRACK 04 AUDIO
TITLE "Track04"
PERFORMER "Unknown Artist"
INDEX 00 27:22:17
INDEX 01 27:24:74
TRACK 05 AUDIO
TITLE "Track05"
PERFORMER "Unknown Artist"
INDEX 00 35:47:03
INDEX 01 35:49:60
TRACK 06 AUDIO
TITLE "Track06"
PERFORMER "Unknown Artist"
INDEX 00 50:43:13
INDEX 01 50:45:70
Any questions -> support@pro-jazz.com. По всем вопросам пишите -> support@pro-jazz.com
13:28
209
Нет комментариев. Ваш будет первым!