Вы используете незарегистрированную версию компонента "Вкладки"!

Поиск

(Free Improvisation, Unit Records) Tini Hagler - Ruedi Hausermann - Martin Schutz - Auf der Hut - 1991, FLAC (tracks+.cue), lossless

(Free Improvisation, Unit Records) Tini Hagler - Ruedi Hausermann - Martin Schutz - Auf der Hut - 1991, FLAC (tracks+.cue), lossless
Треклист:
Hägler - Häusermann - Schütz / Auf der Hut
Жанр: Free Improvisation, Unit Records
Страна-производитель диска: Switzerland
Год издания: 1991
Издатель (лейбл): Unit Records
Номер по каталогу: UTR 4040 CD
Аудиокодек: FLAC (*.flac)
Тип рипа: tracks+.cue
Битрейт аудио: lossless
Продолжительность: 59:11
Источник (релизер): Max Monteiro
Наличие сканов в содержимом раздачи: да
Треклист:
01. I Want to Engeln You 7:09
02. Rasender Hans 2:02
03. Grosse Uebereinstimmung III 5:18
04. Kaltes Kalkül 1:17
05. Mensch im Einsatz 2:11
06. Letzte Schmierung 4:40
07. Dr. Finé’s Vollrausch 3:03
08. Three Fathers Twist 2:44
09. Rodolfo Lacrimoso 1:05
10. Aeltere Herrschaft 4:22
11. Café Randolph 5:01
12. Schloss Walross 4:39
13. Minutage I+II 2:08
14. Mildernde Umstände 4:06
15. Grosse Uebereinstimmung I 1:45
16. Die drei Reifen 4:33
17. Winterhärt 3:08
All compositions by Hägler-Häusermann-Schütz.
 
Лог создания рипа
Exact Audio Copy V1.0 beta 3 from 29. August 2011
EAC extraction logfile from 14. May 2013, 15:29
Hägler - Häusermann - Schütz / Auf der Hut
Used drive : SlimtypeeNAU508 5 Adapter: 1 ID: 0
Read mode : Secure
Utilize accurate stream : Yes
Defeat audio cache : Yes
Make use of C2 pointers : No
Read offset correction : 6
Overread into Lead-In and Lead-Out : No
Fill up missing offset samples with silence : Yes
Delete leading and trailing silent blocks : No
Null samples used in CRC calculations : Yes
Used interface : Native Win32 interface for Win NT & 2000
Gap handling : Appended to previous track
Used output format : User Defined Encoder
Selected bitrate : 768 kBit/s
Quality : High
Add ID3 tag : No
Command line compressor : C:\Program Files (x86)\Exact Audio Copy\Flac\flac.exe
Additional command line options : -8 -V -T "ARTIST=%artist%" -T "TITLE=%title%" -T "ALBUM=%albumtitle%" -T "DATE=%year%" -T "TRACKNUMBER=%tracknr%" -T "GENRE=%genre%" -T "PERFORMER=%albuminterpret%" -T "COMPOSER=%composer%" %haslyrics%--tag-from-file=LYRICS="%lyricsfile%"%haslyrics% -T "ALBUMARTIST=%albumartist%" -T "DISCNUMBER=%cdnumber%" -T "TOTALDISCS=%totalcds%" -T "TOTALTRACKS=%numtracks%" -T "COMMENT=%comment%" %source% -o %dest%
TOC of the extracted CD
Track | Start | Length | Start sector | End sector
---------------------------------------------------------
1 | 0:00.00 | 7:08.62 | 0 | 32161
2 | 7:08.62 | 2:02.00 | 32162 | 41311
3 | 9:10.62 | 5:18.00 | 41312 | 65161
4 | 14:28.62 | 1:17.00 | 65162 | 70936
5 | 15:45.62 | 2:11.00 | 70937 | 80761
6 | 17:56.62 | 4:40.00 | 80762 | 101761
7 | 22:36.62 | 3:03.00 | 101762 | 115486
8 | 25:39.62 | 2:44.00 | 115487 | 127786
9 | 28:23.62 | 1:05.00 | 127787 | 132661
10 | 29:28.62 | 4:22.00 | 132662 | 152311
11 | 33:50.62 | 5:01.00 | 152312 | 174886
12 | 38:51.62 | 4:39.00 | 174887 | 195811
13 | 43:30.62 | 2:08.00 | 195812 | 205411
14 | 45:38.62 | 4:06.00 | 205412 | 223861
15 | 49:44.62 | 1:45.00 | 223862 | 231736
16 | 51:29.62 | 4:33.00 | 231737 | 252211
17 | 56:02.62 | 3:08.13 | 252212 | 266324
Track 1
Filename C:\EAC rips\01 - I Want to Engeln You.wav
Pre-gap length 0:00:02.00
Peak level 92.7 %
Extraction speed 2.3 X
Track quality 100.0 %
Test CRC 989DA2FA
Copy CRC 989DA2FA
Track not present in AccurateRip database
Copy OK
Track 2
Filename C:\EAC rips\02 - Rasender Hans.wav
Peak level 99.9 %
Extraction speed 2.2 X
Track quality 100.0 %
Test CRC A84B9DD5
Copy CRC A84B9DD5
Track not present in AccurateRip database
Copy OK
Track 3
Filename C:\EAC rips\03 - Grosse Uebereinstimmung III.wav
Peak level 44.9 %
Extraction speed 2.8 X
Track quality 100.0 %
Test CRC D0C1A715
Copy CRC D0C1A715
Track not present in AccurateRip database
Copy OK
Track 4
Filename C:\EAC rips\04 - Kaltes Kalkül.wav
Peak level 88.2 %
Extraction speed 1.4 X
Track quality 99.8 %
Test CRC 056858B0
Copy CRC 056858B0
Track not present in AccurateRip database
Copy OK
Track 5
Filename C:\EAC rips\05 - Mensch im Einsatz.wav
Peak level 93.2 %
Extraction speed 2.6 X
Track quality 100.0 %
Test CRC 4CC0D92F
Copy CRC 4CC0D92F
Track not present in AccurateRip database
Copy OK
Track 6
Filename C:\EAC rips\06 - Letzte Schmierung.wav
Peak level 48.3 %
Extraction speed 3.1 X
Track quality 100.0 %
Test CRC DF806D34
Copy CRC DF806D34
Track not present in AccurateRip database
Copy OK
Track 7
Filename C:\EAC rips\07 - Dr. Finé's Vollrausch.wav
Peak level 92.5 %
Extraction speed 3.1 X
Track quality 100.0 %
Test CRC 1E5E6F83
Copy CRC 1E5E6F83
Track not present in AccurateRip database
Copy OK
Track 8
Filename C:\EAC rips\08 - Three Fathers Twist.wav
Peak level 84.6 %
Extraction speed 2.4 X
Track quality 99.9 %
Test CRC 43E127A6
Copy CRC 43E127A6
Track not present in AccurateRip database
Copy OK
Track 9
Filename C:\EAC rips\09 - Rodolfo Lacrimoso.wav
Peak level 48.3 %
Extraction speed 2.5 X
Track quality 100.0 %
Test CRC A412E93C
Copy CRC A412E93C
Track not present in AccurateRip database
Copy OK
Track 10
Filename C:\EAC rips\10 - Aeltere Herrschaft.wav
Peak level 88.5 %
Extraction speed 3.5 X
Track quality 100.0 %
Test CRC F327806F
Copy CRC F327806F
Track not present in AccurateRip database
Copy OK
Track 11
Filename C:\EAC rips\11 - Café Randolph.wav
Peak level 74.4 %
Extraction speed 3.6 X
Track quality 100.0 %
Test CRC 62463144
Copy CRC 62463144
Track not present in AccurateRip database
Copy OK
Track 12
Filename C:\EAC rips\12 - Schloss Walross.wav
Peak level 86.5 %
Extraction speed 3.9 X
Track quality 100.0 %
Test CRC 376545B7
Copy CRC 376545B7
Track not present in AccurateRip database
Copy OK
Track 13
Filename C:\EAC rips\13 - Minutage I+II.wav
Peak level 93.9 %
Extraction speed 3.5 X
Track quality 100.0 %
Test CRC 76BBAF31
Copy CRC 76BBAF31
Track not present in AccurateRip database
Copy OK
Track 14
Filename C:\EAC rips\14 - Mildernde Umstände.wav
Peak level 95.5 %
Extraction speed 3.3 X
Track quality 99.9 %
Test CRC 6C0DFB82
Copy CRC 6C0DFB82
Track not present in AccurateRip database
Copy OK
Track 15
Filename C:\EAC rips\15 - Grosse Uebereinstimmung I.wav
Peak level 44.6 %
Extraction speed 3.5 X
Track quality 100.0 %
Test CRC 8183AC9C
Copy CRC 8183AC9C
Track not present in AccurateRip database
Copy OK
Track 16
Filename C:\EAC rips\16 - Die drei Reifen.wav
Peak level 53.2 %
Extraction speed 4.2 X
Track quality 100.0 %
Test CRC 5BF3E6C2
Copy CRC 5BF3E6C2
Track not present in AccurateRip database
Copy OK
Track 17
Filename C:\EAC rips\17 - Winterhärt.wav
Peak level 55.3 %
Extraction speed 4.1 X
Track quality 100.0 %
Test CRC A33B0285
Copy CRC A33B0285
Track not present in AccurateRip database
Copy OK
None of the tracks are present in the AccurateRip database
No errors occurred
End of status report
---- CUETools DB Plugin V2.1.4
[CTDB TOCID: B6A.p1QEA2aL21J1pbBjSBFCMTk-] disk not present in database
Submit result: B6A.p1QEA2aL21J1pbBjSBFCMTk- has been uploaded
==== Log checksum E9EB4D87E0F732AEE148B6131242C684C363440BFB2AA485630F61236F1046AA ====
 
Содержание индексной карты (.CUE)
REM GENRE Jazz
REM DATE 1991
REM DISCID E00DDF11
REM COMMENT "ExactAudioCopy v1.0b3"
PERFORMER "Hägler - Häusermann - Schütz"
TITLE "Auf der Hut"
FILE "01 - I Want to Engeln You.wav" WAVE
TRACK 01 AUDIO
TITLE "I Want to Engeln You"
PERFORMER "Hägler - Häusermann - Schütz"
INDEX 01 00:00:00
FILE "02 - Rasender Hans.wav" WAVE
TRACK 02 AUDIO
TITLE "Rasender Hans"
PERFORMER "Hägler - Häusermann - Schütz"
INDEX 01 00:00:00
FILE "03 - Grosse Uebereinstimmung III.wav" WAVE
TRACK 03 AUDIO
TITLE "Grosse Uebereinstimmung III"
PERFORMER "Hägler - Häusermann - Schütz"
INDEX 01 00:00:00
FILE "04 - Kaltes Kalkül.wav" WAVE
TRACK 04 AUDIO
TITLE "Kaltes Kalkül"
PERFORMER "Hägler - Häusermann - Schütz"
INDEX 01 00:00:00
FILE "05 - Mensch im Einsatz.wav" WAVE
TRACK 05 AUDIO
TITLE "Mensch im Einsatz"
PERFORMER "Hägler - Häusermann - Schütz"
INDEX 01 00:00:00
FILE "06 - Letzte Schmierung.wav" WAVE
TRACK 06 AUDIO
TITLE "Letzte Schmierung"
PERFORMER "Hägler - Häusermann - Schütz"
INDEX 01 00:00:00
FILE "07 - Dr. Finé's Vollrausch.wav" WAVE
TRACK 07 AUDIO
TITLE "Dr. Finé's Vollrausch"
PERFORMER "Hägler - Häusermann - Schütz"
INDEX 01 00:00:00
FILE "08 - Three Fathers Twist.wav" WAVE
TRACK 08 AUDIO
TITLE "Three Fathers Twist"
PERFORMER "Hägler - Häusermann - Schütz"
INDEX 01 00:00:00
FILE "09 - Rodolfo Lacrimoso.wav" WAVE
TRACK 09 AUDIO
TITLE "Rodolfo Lacrimoso"
PERFORMER "Hägler - Häusermann - Schütz"
INDEX 01 00:00:00
FILE "10 - Aeltere Herrschaft.wav" WAVE
TRACK 10 AUDIO
TITLE "Aeltere Herrschaft"
PERFORMER "Hägler - Häusermann - Schütz"
INDEX 01 00:00:00
FILE "11 - Café Randolph.wav" WAVE
TRACK 11 AUDIO
TITLE "Café Randolph"
PERFORMER "Hägler - Häusermann - Schütz"
INDEX 01 00:00:00
FILE "12 - Schloss Walross.wav" WAVE
TRACK 12 AUDIO
TITLE "Schloss Walross"
PERFORMER "Hägler - Häusermann - Schütz"
INDEX 01 00:00:00
FILE "13 - Minutage I+II.wav" WAVE
TRACK 13 AUDIO
TITLE "Minutage I+II"
PERFORMER "Hägler - Häusermann - Schütz"
INDEX 01 00:00:00
FILE "14 - Mildernde Umstände.wav" WAVE
TRACK 14 AUDIO
TITLE "Mildernde Umstände"
PERFORMER "Hägler - Häusermann - Schütz"
INDEX 01 00:00:00
FILE "15 - Grosse Uebereinstimmung I.wav" WAVE
TRACK 15 AUDIO
TITLE "Grosse Uebereinstimmung I"
PERFORMER "Hägler - Häusermann - Schütz"
INDEX 01 00:00:00
FILE "16 - Die drei Reifen.wav" WAVE
TRACK 16 AUDIO
TITLE "Die drei Reifen"
PERFORMER "Hägler - Häusermann - Schütz"
INDEX 01 00:00:00
FILE "17 - Winterhärt.wav" WAVE
TRACK 17 AUDIO
TITLE "Winterhärt"
PERFORMER "Hägler - Häusermann - Schütz"
INDEX 01 00:00:00
Доп. информация: Aufgenommen und gemischt 1990/91 im Studio Rastral, Grenchen / Switzerland.
 
Состав
Rüdi Häusermann – Flöte, Baritonsax, stark besaitetes Altosax, Klarinette, Akkordeon, Banjo, Spagnolita, Besen, Hi-Hat, Bass-Drum, Stimme
Tini Hägler – Fässer, Ditscheridu, Marimba, Diembé, Congas, Perk.-Gitarre, Blech, Spagnolita, Stimme
Martin Schütz – Akustisches und electrisches Cello, Stimme
Any questions -> support@pro-jazz.com. По всем вопросам пишите -> support@pro-jazz.com
13:11
169
Нет комментариев. Ваш будет первым!