Вы используете незарегистрированную версию компонента "Вкладки"!

Поиск

(Free Improvisation) Frank Lowe / Eugene Chadbourne - Don't Punk Out - 2011, FLAC (tracks+.cue), lossless

(Free Improvisation) Frank Lowe / Eugene Chadbourne - Don't Punk Out - 2011, FLAC (tracks+.cue), lossless
Треклист:
Frank Lowe, Eugene Chadbourne / Don't Punk Out
Жанр: Free Improvisation
Страна-производитель диска: UK
Год издания: 2011
Издатель (лейбл): Emanem
Номер по каталогу: 4043
Аудиокодек: FLAC (*.flac)
Тип рипа: tracks+.cue
Битрейт аудио: lossless
Продолжительность: 64:54
Источник (релизер): whatcd (pjc)
Наличие сканов в содержимом раздачи: нет
Треклист:
1 Composition For David Murray 1:51
2 If It Should Happen 4:08
3 Fright 4:25
4 At Reel's End 2:35
5 Bobo Did It 2:35
6 Ghosts 4:19
7 The Clam 0:59
8 Fire Down There 1:32
9 Phantom To The Tower, Pt. 1-2 4:24
10 You Were Right In The First Place 2:47
11 45 1st Ave [Take 1] 0:20
12 45 1st Ave [Take 2] 2:33
13 There's No Place Like Home 2:54
14 Doctor Too-Much 2:47
15 Don't Punk Out [Take 1] 1:53
16 Don't Punk Out [Take 2] 1:21
17 Inner Extremities Suite 1 [#] 5:07
18 Inner Extremities Suite 2 5:18
19 Inner Extremities Suite 3 3:04
20 Cascades [#] 4:14
21 Manhattan Cry [#] 3:19
22 Open Vision [#] 2:18
 
Лог создания рипа
Exact Audio Copy V1.0 beta 3 from 29. August 2011
EAC extraction logfile from 11. May 2013, 13:44
Frank Lowe & Eugene Chadbourne / Don't Punk Out
Used drive : PLDS DVD+-RW DH-16ACS Adapter: 0 ID: 2
Read mode : Secure
Utilize accurate stream : Yes
Defeat audio cache : Yes
Make use of C2 pointers : No
Read offset correction : 6
Overread into Lead-In and Lead-Out : No
Fill up missing offset samples with silence : Yes
Delete leading and trailing silent blocks : No
Null samples used in CRC calculations : Yes
Used interface : Native Win32 interface for Win NT & 2000
Gap handling : Appended to previous track
Used output format : User Defined Encoder
Selected bitrate : 1024 kBit/s
Quality : High
Add ID3 tag : No
Command line compressor : C:\Program Files (x86)\FLAC\flac.exe
Additional command line options : -8 -V -T "ARTIST=%artist%" -T "TITLE=%title%" -T "ALBUM=%albumtitle%" -T "DATE=%year%" -T "TRACKNUMBER=%tracknr%" -T "GENRE=%genre%" -T "PERFORMER=%albuminterpret%" -T "COMPOSER=%composer%" %haslyrics%--tag-from-file=LYRICS="%lyricsfile%"%haslyrics% -T "ALBUMARTIST=%albumartist%" -T "DISCNUMBER=%cdnumber%" -T "TOTALDISCS=%totalcds%" -T "TOTALTRACKS=%numtracks%" -T "COMMENT=%comment%" %source% -o %dest%
TOC of the extracted CD
Track | Start | Length | Start sector | End sector
---------------------------------------------------------
1 | 0:00.00 | 1:51.13 | 0 | 8337
2 | 1:51.13 | 4:08.63 | 8338 | 27000
3 | 6:00.01 | 4:25.67 | 27001 | 46942
4 | 10:25.68 | 2:35.14 | 46943 | 58581
5 | 13:01.07 | 2:35.69 | 58582 | 70275
6 | 15:37.01 | 4:19.40 | 70276 | 89740
7 | 19:56.41 | 0:59.20 | 89741 | 94185
8 | 20:55.61 | 1:32.62 | 94186 | 101147
9 | 22:28.48 | 4:24.59 | 101148 | 121006
10 | 26:53.32 | 2:47.18 | 121007 | 133549
11 | 29:40.50 | 0:20.36 | 133550 | 135085
12 | 30:01.11 | 2:33.32 | 135086 | 146592
13 | 32:34.43 | 2:54.33 | 146593 | 159675
14 | 35:29.01 | 2:47.72 | 159676 | 172272
15 | 38:16.73 | 1:53.35 | 172273 | 180782
16 | 40:10.33 | 1:21.64 | 180783 | 186921
17 | 41:32.22 | 5:07.19 | 186922 | 209965
18 | 46:39.41 | 5:18.14 | 209966 | 233829
19 | 51:57.55 | 3:04.36 | 233830 | 247665
20 | 55:02.16 | 4:14.70 | 247666 | 266785
21 | 59:17.11 | 3:19.08 | 266786 | 281718
22 | 62:36.19 | 2:18.17 | 281719 | 292085
Track 1
Filename E:\Rips\Frank Lowe, Eugene Chadbourne - Don't Punk Out\01 Composition for David Murray.wav
Pre-gap length 0:00:02.00
Peak level 77.6 %
Extraction speed 3.4 X
Track quality 100.0 %
Test CRC D9C1A499
Copy CRC D9C1A499
Track not present in AccurateRip database
Copy OK
Track 2
Filename E:\Rips\Frank Lowe, Eugene Chadbourne - Don't Punk Out\02 If It Should Happen.wav
Pre-gap length 0:00:02.00
Peak level 67.2 %
Extraction speed 4.4 X
Track quality 100.0 %
Test CRC B9308EE9
Copy CRC B9308EE9
Track not present in AccurateRip database
Copy OK
Track 3
Filename E:\Rips\Frank Lowe, Eugene Chadbourne - Don't Punk Out\03 Fright.wav
Pre-gap length 0:00:02.00
Peak level 92.5 %
Extraction speed 5.0 X
Track quality 100.0 %
Test CRC 536138C0
Copy CRC 536138C0
Track not present in AccurateRip database
Copy OK
Track 4
Filename E:\Rips\Frank Lowe, Eugene Chadbourne - Don't Punk Out\04 At Reel's End.wav
Pre-gap length 0:00:02.00
Peak level 89.4 %
Extraction speed 4.9 X
Track quality 100.0 %
Test CRC CF53CA84
Copy CRC CF53CA84
Track not present in AccurateRip database
Copy OK
Track 5
Filename E:\Rips\Frank Lowe, Eugene Chadbourne - Don't Punk Out\05 Bobo Did It.wav
Pre-gap length 0:00:02.00
Peak level 62.1 %
Extraction speed 5.1 X
Track quality 100.0 %
Test CRC D6CF48B9
Copy CRC D6CF48B9
Track not present in AccurateRip database
Copy OK
Track 6
Filename E:\Rips\Frank Lowe, Eugene Chadbourne - Don't Punk Out\06 Ghosts.wav
Pre-gap length 0:00:02.00
Peak level 73.3 %
Extraction speed 5.8 X
Track quality 100.0 %
Test CRC A9ECA6E4
Copy CRC A9ECA6E4
Track not present in AccurateRip database
Copy OK
Track 7
Filename E:\Rips\Frank Lowe, Eugene Chadbourne - Don't Punk Out\07 The Clam.wav
Pre-gap length 0:00:02.00
Peak level 78.4 %
Extraction speed 4.2 X
Track quality 100.0 %
Test CRC 451EF611
Copy CRC 451EF611
Track not present in AccurateRip database
Copy OK
Track 8
Filename E:\Rips\Frank Lowe, Eugene Chadbourne - Don't Punk Out\08 Fire Down There.wav
Pre-gap length 0:00:04.00
Peak level 81.6 %
Extraction speed 5.0 X
Track quality 100.0 %
Test CRC 1BBE25D3
Copy CRC 1BBE25D3
Track not present in AccurateRip database
Copy OK
Track 9
Filename E:\Rips\Frank Lowe, Eugene Chadbourne - Don't Punk Out\09 Phantom to the Tower, Pt. 1-2.wav
Pre-gap length 0:00:02.00
Peak level 89.4 %
Extraction speed 6.5 X
Track quality 100.0 %
Test CRC DB12C885
Copy CRC DB12C885
Track not present in AccurateRip database
Copy OK
Track 10
Filename E:\Rips\Frank Lowe, Eugene Chadbourne - Don't Punk Out\10 You Were Right in the First Place.wav
Pre-gap length 0:00:02.00
Peak level 47.6 %
Extraction speed 6.2 X
Track quality 100.0 %
Test CRC 96E54C77
Copy CRC 96E54C77
Track not present in AccurateRip database
Copy OK
Track 11
Filename E:\Rips\Frank Lowe, Eugene Chadbourne - Don't Punk Out\11 45 1st Ave [Take 1].wav
Pre-gap length 0:00:02.00
Peak level 66.5 %
Extraction speed 2.6 X
Track quality 100.0 %
Test CRC 5E8F12C7
Copy CRC 5E8F12C7
Track not present in AccurateRip database
Copy OK
Track 12
Filename E:\Rips\Frank Lowe, Eugene Chadbourne - Don't Punk Out\12 45 1st Ave [Take 2].wav
Peak level 74.9 %
Extraction speed 6.3 X
Track quality 100.0 %
Test CRC 2BE02C67
Copy CRC 2BE02C67
Track not present in AccurateRip database
Copy OK
Track 13
Filename E:\Rips\Frank Lowe, Eugene Chadbourne - Don't Punk Out\13 There's No Place Like Home.wav
Pre-gap length 0:00:02.00
Peak level 61.5 %
Extraction speed 6.6 X
Track quality 100.0 %
Test CRC 72174554
Copy CRC 72174554
Track not present in AccurateRip database
Copy OK
Track 14
Filename E:\Rips\Frank Lowe, Eugene Chadbourne - Don't Punk Out\14 Doctor Too-Much.wav
Pre-gap length 0:00:02.00
Peak level 74.8 %
Extraction speed 5.2 X
Track quality 99.9 %
Test CRC 83D88FC2
Copy CRC 83D88FC2
Track not present in AccurateRip database
Copy OK
Track 15
Filename E:\Rips\Frank Lowe, Eugene Chadbourne - Don't Punk Out\15 Don't Punk Out [Take 1].wav
Pre-gap length 0:00:02.00
Peak level 81.7 %
Extraction speed 6.1 X
Track quality 100.0 %
Test CRC A173880F
Copy CRC A173880F
Track not present in AccurateRip database
Copy OK
Track 16
Filename E:\Rips\Frank Lowe, Eugene Chadbourne - Don't Punk Out\16 Don't Punk Out [Take 2].wav
Pre-gap length 0:00:04.14
Peak level 69.4 %
Extraction speed 5.8 X
Track quality 100.0 %
Test CRC BB47D662
Copy CRC BB47D662
Track not present in AccurateRip database
Copy OK
Track 17
Filename E:\Rips\Frank Lowe, Eugene Chadbourne - Don't Punk Out\17 Inner Extremities Suite 1.wav
Pre-gap length 0:00:08.00
Peak level 100.0 %
Extraction speed 7.9 X
Track quality 100.0 %
Test CRC 8E52AEBC
Copy CRC 8E52AEBC
Track not present in AccurateRip database
Copy OK
Track 18
Filename E:\Rips\Frank Lowe, Eugene Chadbourne - Don't Punk Out\18 Inner Extremities Suite 2.wav
Peak level 99.3 %
Extraction speed 8.3 X
Track quality 100.0 %
Test CRC B3760FE5
Copy CRC B3760FE5
Track not present in AccurateRip database
Copy OK
Track 19
Filename E:\Rips\Frank Lowe, Eugene Chadbourne - Don't Punk Out\19 Inner Extremities Suite 3.wav
Pre-gap length 0:00:02.00
Peak level 99.2 %
Extraction speed 7.9 X
Track quality 100.0 %
Test CRC 9DE7C76C
Copy CRC 9DE7C76C
Track not present in AccurateRip database
Copy OK
Track 20
Filename E:\Rips\Frank Lowe, Eugene Chadbourne - Don't Punk Out\20 Cascades.wav
Pre-gap length 0:00:08.00
Peak level 89.1 %
Extraction speed 7.0 X
Track quality 99.9 %
Test CRC 4C3FB45F
Copy CRC 4C3FB45F
Track not present in AccurateRip database
Copy OK
Track 21
Filename E:\Rips\Frank Lowe, Eugene Chadbourne - Don't Punk Out\21 Manhattan Cry.wav
Pre-gap length 0:00:02.00
Peak level 63.6 %
Extraction speed 8.4 X
Track quality 100.0 %
Test CRC 1846D564
Copy CRC 1846D564
Track not present in AccurateRip database
Copy OK
Track 22
Filename E:\Rips\Frank Lowe, Eugene Chadbourne - Don't Punk Out\22 Open Vision.wav
Pre-gap length 0:00:02.00
Peak level 61.9 %
Extraction speed 8.0 X
Track quality 100.0 %
Test CRC 0781576E
Copy CRC 0781576E
Track not present in AccurateRip database
Copy OK
None of the tracks are present in the AccurateRip database
No errors occurred
End of status report
==== Log checksum 0563977E5082DD5C876D9DAA95168646448E9A4EFF2DF2D49E20944F6D00AC18 ====
 
Содержание индексной карты (.CUE)
REM GENRE Jazz
REM DISCID 3C0F3616
REM COMMENT "ExactAudioCopy v1.0b3"
PERFORMER "Frank Lowe & Eugene Chadbourne"
TITLE "Don't Punk Out"
FILE "01 Composition for David Murray.wav" WAVE
TRACK 01 AUDIO
TITLE "Composition for David Murray"
PERFORMER "Frank Lowe & Eugene Chadbourne"
INDEX 01 00:00:00
TRACK 02 AUDIO
TITLE "If It Should Happen"
PERFORMER "Frank Lowe & Eugene Chadbourne"
INDEX 00 01:49:13
FILE "02 If It Should Happen.wav" WAVE
INDEX 01 00:00:00
TRACK 03 AUDIO
TITLE "Fright"
PERFORMER "Frank Lowe & Eugene Chadbourne"
INDEX 00 04:06:63
FILE "03 Fright.wav" WAVE
INDEX 01 00:00:00
TRACK 04 AUDIO
TITLE "At Reel's End"
PERFORMER "Frank Lowe & Eugene Chadbourne"
INDEX 00 04:23:67
FILE "04 At Reel's End.wav" WAVE
INDEX 01 00:00:00
TRACK 05 AUDIO
TITLE "Bobo Did It"
PERFORMER "Frank Lowe & Eugene Chadbourne"
INDEX 00 02:33:14
FILE "05 Bobo Did It.wav" WAVE
INDEX 01 00:00:00
TRACK 06 AUDIO
TITLE "Ghosts"
PERFORMER "Frank Lowe & Eugene Chadbourne"
INDEX 00 02:33:69
FILE "06 Ghosts.wav" WAVE
INDEX 01 00:00:00
TRACK 07 AUDIO
TITLE "The Clam"
PERFORMER "Frank Lowe & Eugene Chadbourne"
INDEX 00 04:17:40
FILE "07 The Clam.wav" WAVE
INDEX 01 00:00:00
TRACK 08 AUDIO
TITLE "Fire Down There"
PERFORMER "Frank Lowe & Eugene Chadbourne"
INDEX 00 00:55:20
FILE "08 Fire Down There.wav" WAVE
INDEX 01 00:00:00
TRACK 09 AUDIO
TITLE "Phantom to the Tower, Pt. 1-2"
PERFORMER "Frank Lowe & Eugene Chadbourne"
INDEX 00 01:30:62
FILE "09 Phantom to the Tower, Pt. 1-2.wav" WAVE
INDEX 01 00:00:00
INDEX 02 02:59:41
TRACK 10 AUDIO
TITLE "You Were Right in the First Place"
PERFORMER "Frank Lowe & Eugene Chadbourne"
INDEX 00 04:22:59
FILE "10 You Were Right in the First Place.wav" WAVE
INDEX 01 00:00:00
TRACK 11 AUDIO
TITLE "45 1st Ave [Take 1]"
PERFORMER "Frank Lowe & Eugene Chadbourne"
INDEX 00 02:45:18
FILE "11 45 1st Ave [Take 1].wav" WAVE
INDEX 01 00:00:00
FILE "12 45 1st Ave [Take 2].wav" WAVE
TRACK 12 AUDIO
TITLE "45 1st Ave [Take 2]"
PERFORMER "Frank Lowe & Eugene Chadbourne"
INDEX 01 00:00:00
TRACK 13 AUDIO
TITLE "There's No Place Like Home"
PERFORMER "Frank Lowe & Eugene Chadbourne"
INDEX 00 02:31:32
FILE "13 There's No Place Like Home.wav" WAVE
INDEX 01 00:00:00
TRACK 14 AUDIO
TITLE "Doctor Too-Much"
PERFORMER "Frank Lowe & Eugene Chadbourne"
INDEX 00 02:52:33
FILE "14 Doctor Too-Much.wav" WAVE
INDEX 01 00:00:00
TRACK 15 AUDIO
TITLE "Don't Punk Out [Take 1]"
PERFORMER "Frank Lowe & Eugene Chadbourne"
INDEX 00 02:45:72
FILE "15 Don't Punk Out [Take 1].wav" WAVE
INDEX 01 00:00:00
TRACK 16 AUDIO
TITLE "Don't Punk Out [Take 2]"
PERFORMER "Frank Lowe & Eugene Chadbourne"
INDEX 00 01:49:24
FILE "16 Don't Punk Out [Take 2].wav" WAVE
INDEX 01 00:00:00
TRACK 17 AUDIO
TITLE "Inner Extremities Suite 1"
PERFORMER "Frank Lowe & Eugene Chadbourne"
INDEX 00 01:13:64
FILE "17 Inner Extremities Suite 1.wav" WAVE
INDEX 01 00:00:00
FILE "18 Inner Extremities Suite 2.wav" WAVE
TRACK 18 AUDIO
TITLE "Inner Extremities Suite 2"
PERFORMER "Frank Lowe & Eugene Chadbourne"
INDEX 01 00:00:00
TRACK 19 AUDIO
TITLE "Inner Extremities Suite 3"
PERFORMER "Frank Lowe & Eugene Chadbourne"
INDEX 00 05:16:14
FILE "19 Inner Extremities Suite 3.wav" WAVE
INDEX 01 00:00:00
TRACK 20 AUDIO
TITLE "Cascades"
PERFORMER "Frank Lowe & Eugene Chadbourne"
INDEX 00 02:56:36
FILE "20 Cascades.wav" WAVE
INDEX 01 00:00:00
TRACK 21 AUDIO
TITLE "Manhattan Cry"
PERFORMER "Frank Lowe & Eugene Chadbourne"
INDEX 00 04:12:70
FILE "21 Manhattan Cry.wav" WAVE
INDEX 01 00:00:00
TRACK 22 AUDIO
TITLE "Open Vision"
PERFORMER "Frank Lowe & Eugene Chadbourne"
INDEX 00 03:17:08
FILE "22 Open Vision.wav" WAVE
INDEX 01 00:00:00
Доп. информация: Stereo recording, New York City, October 13, 1977
 
Об альбоме (сборнике)
Don't Punk Out was first released on LP by Emanem in 1979. The album then consisted of 16 tracks recorded by Frank Lowe (tenor saxophone) and Eugene Chadbourne (electric and acoustic guitar) on October 13, 1977. For the CD reissue, Chadbourne dug up three Lowe pieces he recorded on guitar in 1979, while Lowe went back into the studio in April 2000 to record three fresh solo tracks (one composition and tunes by Oliver Nelson and Don Cherry). Both musicians agreed on aiming at short pieces for this session. Each one brought a handful of compositions, the title track was written in collaboration, and two free improvs were also recorded, along with Albert Ayler's "Ghosts" and a Sonny Rollins favorite "Fire Down There." True to both musicians, most of the music is manic, punchy, with an intensity heighten by the shortness of the takes. Chadbourne's "The Clam" is a complete theme-solos-recap jazz tune in 55 seconds. But surprisingly, this duo could also quiet down, as exemplified by "Fright" and the very nice "You Were Right in the First Place." As usual with Chadbourne, there is a strong feeling of controlled sloppiness, although fans will find him more tidy than usual. Not a stellar recording, Don't Punk Out remains an enjoyable album and a good testimony of what these two could do together. The three bonus Lowe solos put the cherry on top of the sundae.
 
Состав
Guitar – Eugene Chadbourne
Tenor Saxophone – Frank Lowe
Any questions -> support@pro-jazz.com. По всем вопросам пишите -> support@pro-jazz.com
13:11
190
Нет комментариев. Ваш будет первым!