Вы используете незарегистрированную версию компонента "Вкладки"!

Поиск

(Free Improvisation, Unit Records) BraffOesterRohrer (Malcolm Braff, Baenz Oester, Samuel Rohrer) - Maximal Music - 2005, FLAC (tracks+.cue), lossless

(Free Improvisation, Unit Records) BraffOesterRohrer (Malcolm Braff, Baenz Oester, Samuel Rohrer) - Maximal Music - 2005, FLAC (tracks+.cue), lossless
Треклист:
BraffOesterRohrer / Maximal Music
Жанр: Free Improvisation, Unit Records
Страна-производитель диска: Switzerland
Год издания: 2005
Издатель (лейбл): Unit Records
Номер по каталогу: UTR 4147
Аудиокодек: FLAC (*.flac)
Тип рипа: tracks+.cue
Битрейт аудио: lossless
Продолжительность: 1:11:05
Источник (релизер): Max Monteiro
Наличие сканов в содержимом раздачи: нет
Треклист:
1. Ritual Song (Malcolm Braff) 25:44
2. Amsterdam (Jacques Brel) 9:06
3. Verlan (Bänz Oester) 16:30
4. Norwegian Wood (John Lennon / Paul McCartney) 13:12
5. Ich weiss, es wird… (Bruno Balz / Michael Jary) 6:33
Recorded July 26-28, 2004 at HKB Studio, Bern / Switzerland.
Malcolm Braff – Piano
Bänz Oester – Bass
Samuel Rohrer – Drums
 
Лог создания рипа
Exact Audio Copy V1.0 beta 3 from 29. August 2011
EAC extraction logfile from 10. May 2013, 19:40
BraffOesterRohrer / Maximal Music
Used drive : SlimtypeeNAU508 5 Adapter: 1 ID: 0
Read mode : Secure
Utilize accurate stream : Yes
Defeat audio cache : Yes
Make use of C2 pointers : No
Read offset correction : 6
Overread into Lead-In and Lead-Out : No
Fill up missing offset samples with silence : Yes
Delete leading and trailing silent blocks : No
Null samples used in CRC calculations : Yes
Used interface : Native Win32 interface for Win NT & 2000
Gap handling : Appended to previous track
Used output format : User Defined Encoder
Selected bitrate : 768 kBit/s
Quality : High
Add ID3 tag : No
Command line compressor : C:\Program Files (x86)\Exact Audio Copy\Flac\flac.exe
Additional command line options : -8 -V -T "ARTIST=%artist%" -T "TITLE=%title%" -T "ALBUM=%albumtitle%" -T "DATE=%year%" -T "TRACKNUMBER=%tracknr%" -T "GENRE=%genre%" -T "PERFORMER=%albuminterpret%" -T "COMPOSER=%composer%" %haslyrics%--tag-from-file=LYRICS="%lyricsfile%"%haslyrics% -T "ALBUMARTIST=%albumartist%" -T "DISCNUMBER=%cdnumber%" -T "TOTALDISCS=%totalcds%" -T "TOTALTRACKS=%numtracks%" -T "COMMENT=%comment%" %source% -o %dest%
TOC of the extracted CD
Track | Start | Length | Start sector | End sector
---------------------------------------------------------
1 | 0:00.00 | 25:43.57 | 0 | 115781
2 | 25:43.57 | 9:06.19 | 115782 | 156750
3 | 34:50.01 | 16:29.49 | 156751 | 230974
4 | 51:19.50 | 13:11.45 | 230975 | 290344
5 | 64:31.20 | 6:33.26 | 290345 | 319845
Track 1
Filename C:\EAC rips\01 - Ritual Song.wav
Pre-gap length 0:00:02.00
Peak level 99.0 %
Extraction speed 2.9 X
Track quality 99.9 %
Test CRC E3DF8ED0
Copy CRC E3DF8ED0
Track not present in AccurateRip database
Copy OK
Track 2
Filename C:\EAC rips\02 - Amsterdam.wav
Pre-gap length 0:00:02.00
Peak level 99.0 %
Extraction speed 3.7 X
Track quality 100.0 %
Test CRC 606B2DBC
Copy CRC 606B2DBC
Track not present in AccurateRip database
Copy OK
Track 3
Filename C:\EAC rips\03 - Verlan.wav
Pre-gap length 0:00:02.00
Peak level 99.0 %
Extraction speed 4.3 X
Track quality 100.0 %
Test CRC 8FDD357A
Copy CRC 8FDD357A
Track not present in AccurateRip database
Copy OK
Track 4
Filename C:\EAC rips\04 - Norwegian Wood.wav
Pre-gap length 0:00:02.00
Peak level 99.0 %
Extraction speed 4.8 X
Track quality 100.0 %
Test CRC EED30D9F
Copy CRC EED30D9F
Track not present in AccurateRip database
Copy OK
Track 5
Filename C:\EAC rips\05 - Ich weiss, es wird....wav
Pre-gap length 0:00:02.00
Peak level 99.0 %
Extraction speed 4.8 X
Track quality 100.0 %
Test CRC BF0911F1
Copy CRC BF0911F1
Track not present in AccurateRip database
Copy OK
None of the tracks are present in the AccurateRip database
No errors occurred
End of status report
---- CUETools DB Plugin V2.1.4
[CTDB TOCID: ni90yutqusW86TQ3vYx2lp3vBto-] disk not present in database
Submit result: ni90yutqusW86TQ3vYx2lp3vBto- has been uploaded
==== Log checksum 2A1D87AE30A9196FAC81ED37025A93EADD483B78A907F6D6CEBD4BA835CECC27 ====
 
Содержание индексной карты (.CUE)
REM GENRE Jazz
REM DATE 2005
REM DISCID 3F10A805
REM COMMENT "ExactAudioCopy v1.0b3"
PERFORMER "BraffOesterRohrer"
TITLE "Maximal Music"
FILE "01 - Ritual Song.wav" WAVE
TRACK 01 AUDIO
TITLE "Ritual Song"
PERFORMER "BraffOesterRohrer"
ISRC CH2170044701
INDEX 01 00:00:00
TRACK 02 AUDIO
TITLE "Amsterdam"
PERFORMER "BraffOesterRohrer"
ISRC CH2170044702
INDEX 00 25:41:57
FILE "02 - Amsterdam.wav" WAVE
INDEX 01 00:00:00
TRACK 03 AUDIO
TITLE "Verlan"
PERFORMER "BraffOesterRohrer"
ISRC CH2170044703
INDEX 00 09:04:19
FILE "03 - Verlan.wav" WAVE
INDEX 01 00:00:00
TRACK 04 AUDIO
TITLE "Norwegian Wood"
PERFORMER "BraffOesterRohrer"
ISRC CH2170044704
INDEX 00 16:27:49
FILE "04 - Norwegian Wood.wav" WAVE
INDEX 01 00:00:00
TRACK 05 AUDIO
TITLE "Ich weiss, es wird..."
PERFORMER "BraffOesterRohrer"
ISRC CH2170044705
INDEX 00 13:09:45
FILE "05 - Ich weiss, es wird....wav" WAVE
INDEX 01 00:00:00
Any questions -> support@pro-jazz.com. По всем вопросам пишите -> support@pro-jazz.com
13:09
145
Нет комментариев. Ваш будет первым!