Вы используете незарегистрированную версию компонента "Вкладки"!

Поиск

(Free Jazz) Thomas Borgmann, Wilber Morris, Reggie Nicholson - BMN Trio...You See What We're Sayin'? - 1998, FLAC (image+.cue), lossless

(Free Jazz) Thomas Borgmann, Wilber Morris, Reggie Nicholson - BMN Trio...You See What We're Sayin'? - 1998, FLAC (image+.cue), lossless
Треклист:
Thomas Borgmann, Wilber Morris, Reggie Nicholson / BMN Trio...You See What We're Sayin'?
Жанр: Free Jazz
Страна-производитель диска: US
Год издания: 1998
Издатель (лейбл): CIMP
Номер по каталогу: 188
Аудиокодек: FLAC (*.flac)
Тип рипа: image+.cue
Битрейт аудио: lossless
Продолжительность: 65:42
Источник (релизер): cd
Наличие сканов в содержимом раздачи: нет
Треклист:
1 Goodbye Mr. Charles 28:36
2 Mothers & Fathers 15:42
3 Forecasts 7:33
4 Everything Falls Into Place 13:44
 
Лог создания рипа
Exact Audio Copy V1.0 beta 2 from 29. April 2011
EAC extraction logfile from 13. May 2013, 10:57
Borgmann, Morris, Nicholson / BMN Trio...You See What We're Sayin'?
Used drive : Optiarc DVD RW AD-7170A Adapter: 0 ID: 0
Read mode : Secure
Utilize accurate stream : Yes
Defeat audio cache : Yes
Make use of C2 pointers : No
Read offset correction : 48
Overread into Lead-In and Lead-Out : No
Fill up missing offset samples with silence : Yes
Delete leading and trailing silent blocks : No
Null samples used in CRC calculations : Yes
Used interface : Native Win32 interface for Win NT & 2000
Used output format : User Defined Encoder
Selected bitrate : 320 kBit/s
Quality : High
Add ID3 tag : No
Command line compressor : C:\Program Files\Exact Audio Copy\Flac\flac.exe
Additional command line options : -V -8 -T "Date=%year%" -T "Genre=%genre%" %source%
TOC of the extracted CD
Track | Start | Length | Start sector | End sector
---------------------------------------------------------
1 | 0:00.00 | 28:38.60 | 0 | 128909
2 | 28:38.60 | 15:44.69 | 128910 | 199778
3 | 44:23.54 | 7:35.29 | 199779 | 233932
4 | 51:59.08 | 13:43.60 | 233933 | 295717
Range status and errors
Selected range
Filename K:\ЕАС\Borgmann, Morris, Nicholson - BMN Trio...You See What We're Sayin'.wav
Peak level 98.7 %
Extraction speed 1.9 X
Range quality 99.9 %
Test CRC 4E01B6C6
Copy CRC 4E01B6C6
Copy OK
No errors occurred
AccurateRip summary
Track 1 accurately ripped (confidence 1) [44BACAF4] (AR v1)
Track 2 accurately ripped (confidence 1) [168363A2] (AR v1)
Track 3 accurately ripped (confidence 1) [0840C3C6] (AR v1)
Track 4 accurately ripped (confidence 1) [1B14F62B] (AR v1)
All tracks accurately ripped
End of status report
==== Log checksum E9C9431F9C45B0C6AF88DD8BD765E50B21C3C8F123A5EF92B793F0C277477443 ====
 
Содержание индексной карты (.CUE)
REM GENRE "Free Jazz"
REM DATE 1998
REM DISCID 260F6604
REM COMMENT "ExactAudioCopy v1.0b2"
PERFORMER "Borgmann, Morris, Nicholson"
TITLE "BMN Trio...You See What We're Sayin'?"
FILE "Borgmann, Morris, Nicholson - BMN Trio...You See What We're Sayin'.flac" WAVE
TRACK 01 AUDIO
TITLE "Goodbye Mr. Charles"
PERFORMER "Borgmann, Morris, Nicholson"
ISRC 000000000000
INDEX 01 00:00:00
TRACK 02 AUDIO
TITLE "Mothers & Fathers"
PERFORMER "Borgmann, Morris, Nicholson"
ISRC 000000000000
INDEX 00 28:36:03
INDEX 01 28:38:60
TRACK 03 AUDIO
TITLE "Forecasts"
PERFORMER "Borgmann, Morris, Nicholson"
ISRC 000000000000
INDEX 00 44:20:73
INDEX 01 44:23:54
TRACK 04 AUDIO
TITLE "Everything Falls Into Place"
PERFORMER "Borgmann, Morris, Nicholson"
ISRC 000000000000
INDEX 00 51:56:26
INDEX 01 51:59:08
Доп. информация: Recorded at The Spirit Room, Rossie, NY, October 12, 1998.
 
Состав
Bass, Voice, Composed By, Arranged By – Wilber Morris
Drums, Composed By, Arranged By – Reggie Nicholson
Soprano Saxophone, Sopranino Saxophone, Tenor Saxophone, Composed By, Arranged By – Thomas Borgmann
Any questions -> support@pro-jazz.com. По всем вопросам пишите -> support@pro-jazz.com
13:09
163
Нет комментариев. Ваш будет первым!