Вы используете незарегистрированную версию компонента "Вкладки"!

Поиск

(Free Improvisation, Strings) Judith Insell - Joe Fonda Duo - Dark Wood Explorations - 2008, FLAC (tracks+.cue) lossless

Треклист:
Judith Insell - Joe Fonda Duo ~ Dark Wood Explorations
Жанр: Free Improvisation, Strings
Страна-производитель диска: USA
Год издания диска: 2008
Издатель (лейбл): Insell Music
Номер по каталогу: n.n.
Страна: USA
Аудио кодек: FLAC (*.flac)
Тип рипа: tracks+.cue
Битрейт аудио: lossless
Продолжительность: 57:21
Источник (релизер): собственный рип с оригинального диска.
Наличие сканов в содержимом раздачи: да
Треклист:
01. India (John Coltrane)
02. Very Early (Bill Evans)
03. Bill (Judith Insell)
04. In The White Cage (Joe Fonda)
05. Elm (Richard Beirach
06. Baghdad Waltz (Judith Insell)
07. Song For My Mother (Joe Fonda)
08. Voo La La Blues (Judith Insell)
 
Лог создания рипа
Exact Audio Copy V0.99 prebeta 5 from 4. May 2009
EAC extraction logfile from 12. January 2011, 9:41
Judith Insell & Joe Fonda Duo / Dark Wood Explorations
Used drive : TSSTcorpCDDVDW SH-S222A Adapter: 1 ID: 0
Read mode : Secure
Utilize accurate stream : Yes
Defeat audio cache : Yes
Make use of C2 pointers : No
Read offset correction : 6
Overread into Lead-In and Lead-Out : No
Fill up missing offset samples with silence : Yes
Delete leading and trailing silent blocks : No
Null samples used in CRC calculations : Yes
Used interface : Installed external ASPI interface
Gap handling : Appended to previous track
Used output format : User Defined Encoder
Selected bitrate : 768 kBit/s
Quality : High
Add ID3 tag : No
Command line compressor : C:\Tool\Compress\FLAC\flac.exe
Additional command line options : -V -8 -T "ARTIST=%a" -T "TITLE=%t" -T "ALBUM=%g" -T "TRACKNUMBER=%n" -T "GENRE=%m" %s
TOC of the extracted CD
Track | Start | Length | Start sector | End sector
---------------------------------------------------------
1 | 0:00.00 | 6:37.21 | 0 | 29795
2 | 6:37.21 | 6:26.29 | 29796 | 58774
3 | 13:03.50 | 6:43.47 | 58775 | 89046
4 | 19:47.22 | 7:50.64 | 89047 | 124360
5 | 27:38.11 | 10:19.61 | 124361 | 170846
6 | 37:57.72 | 5:10.12 | 170847 | 194108
7 | 43:08.09 | 9:04.49 | 194109 | 234957
8 | 52:12.58 | 5:09.12 | 234958 | 258144
Track 1
Filename C:\! RUTRACKER\ru up\Judith Insell & Joe Fonda Duo - Dark Wood Explorations (2008) [FLAC]\01 - India.wav
Pre-gap length 0:00:02.00
Peak level 100.0 %
Track quality 100.0 %
Test CRC DF40B5D5
Copy CRC DF40B5D5
Track not present in AccurateRip database
Copy OK
Track 2
Filename C:\! RUTRACKER\ru up\Judith Insell & Joe Fonda Duo - Dark Wood Explorations (2008) [FLAC]\02 - Very Early.wav
Pre-gap length 0:00:03.00
Peak level 94.4 %
Track quality 100.0 %
Test CRC 56F13F5C
Copy CRC 56F13F5C
Track not present in AccurateRip database
Copy OK
Track 3
Filename C:\! RUTRACKER\ru up\Judith Insell & Joe Fonda Duo - Dark Wood Explorations (2008) [FLAC]\03 - Biil.wav
Pre-gap length 0:00:04.00
Peak level 83.8 %
Track quality 100.0 %
Test CRC 1A22F75B
Copy CRC 1A22F75B
Track not present in AccurateRip database
Copy OK
Track 4
Filename C:\! RUTRACKER\ru up\Judith Insell & Joe Fonda Duo - Dark Wood Explorations (2008) [FLAC]\04 - In the White Cage.wav
Pre-gap length 0:00:04.00
Peak level 100.0 %
Track quality 99.9 %
Test CRC E8820C76
Copy CRC E8820C76
Track not present in AccurateRip database
Copy OK
Track 5
Filename C:\! RUTRACKER\ru up\Judith Insell & Joe Fonda Duo - Dark Wood Explorations (2008) [FLAC]\05 - Elm.wav
Pre-gap length 0:00:04.00
Peak level 95.0 %
Track quality 100.0 %
Test CRC 00ACBA85
Copy CRC 00ACBA85
Track not present in AccurateRip database
Copy OK
Track 6
Filename C:\! RUTRACKER\ru up\Judith Insell & Joe Fonda Duo - Dark Wood Explorations (2008) [FLAC]\06 - Baghdad Waltz.wav
Pre-gap length 0:00:05.00
Peak level 100.0 %
Track quality 99.9 %
Test CRC FD58B90A
Copy CRC FD58B90A
Track not present in AccurateRip database
Copy OK
Track 7
Filename C:\! RUTRACKER\ru up\Judith Insell & Joe Fonda Duo - Dark Wood Explorations (2008) [FLAC]\07 - Song for My Mother.wav
Pre-gap length 0:00:07.00
Peak level 82.3 %
Track quality 100.0 %
Test CRC 0AA5030B
Copy CRC 0AA5030B
Track not present in AccurateRip database
Copy OK
Track 8
Filename C:\! RUTRACKER\ru up\Judith Insell & Joe Fonda Duo - Dark Wood Explorations (2008) [FLAC]\08 - Voo La La Blues.wav
Pre-gap length 0:00:04.00
Peak level 65.7 %
Track quality 99.9 %
Test CRC E457BA81
Copy CRC E457BA81
Track not present in AccurateRip database
Copy OK
None of the tracks are present in the AccurateRip database
No errors occurred
End of status report
 
Содержание индексной карты (.CUE)
REM GENRE Jazz
REM DATE 2008
REM DISCID 7A0D7108
REM COMMENT "ExactAudioCopy v0.99pb5"
PERFORMER "Judith Insell & Joe Fonda Duo"
TITLE "Dark Wood Explorations"
FILE "01 - India.wav" WAVE
TRACK 01 AUDIO
TITLE "India"
PERFORMER "Judith Insell & Joe Fonda Duo"
INDEX 01 00:00:00
TRACK 02 AUDIO
TITLE "Very Early"
PERFORMER "Judith Insell & Joe Fonda Duo"
INDEX 00 06:34:21
FILE "02 - Very Early.wav" WAVE
INDEX 01 00:00:00
TRACK 03 AUDIO
TITLE "Biil"
PERFORMER "Judith Insell & Joe Fonda Duo"
INDEX 00 06:22:29
FILE "03 - Biil.wav" WAVE
INDEX 01 00:00:00
TRACK 04 AUDIO
TITLE "In the White Cage"
PERFORMER "Judith Insell & Joe Fonda Duo"
INDEX 00 06:39:47
FILE "04 - In the White Cage.wav" WAVE
INDEX 01 00:00:00
TRACK 05 AUDIO
TITLE "Elm"
PERFORMER "Judith Insell & Joe Fonda Duo"
INDEX 00 07:46:64
FILE "05 - Elm.wav" WAVE
INDEX 01 00:00:00
TRACK 06 AUDIO
TITLE "Baghdad Waltz"
PERFORMER "Judith Insell & Joe Fonda Duo"
INDEX 00 10:14:61
FILE "06 - Baghdad Waltz.wav" WAVE
INDEX 01 00:00:00
TRACK 07 AUDIO
TITLE "Song for My Mother"
PERFORMER "Judith Insell & Joe Fonda Duo"
INDEX 00 05:03:12
FILE "07 - Song for My Mother.wav" WAVE
INDEX 01 00:00:00
TRACK 08 AUDIO
TITLE "Voo La La Blues"
PERFORMER "Judith Insell & Joe Fonda Duo"
INDEX 00 09:00:49
FILE "08 - Voo La La Blues.wav" WAVE
INDEX 01 00:00:00
Доп. информация:
Recorded January 17 & 18, 2008 by Louis Brown at L. Brown Recording, Inc.
 
Об альбоме (сборнике)
I recall Ms. Insell from her days with the Soldier String Quartet when the performed with John Cale. She has also worked with Lee Konitz, Steve Coleman and Greg Osby. Contrabassist extraordinaire, Joe Fonda, remains one of the greatest of all local bassists and has worked with a plethora of downtown's best musicians: Anthony Braxton, Fonda/Steven Group, Conference Call and the Nu Band. The duo opens with Coltrane's "India," a fave of many Trane fans, myself included. This piece is quite powerful as Joe bass provides some thunder while Judith wails on top. What I love abut this is that the duo is able to provide those heavy spirits with just two string players. Bill Evan's poignant "Very Early" is done with taste and care. I dig the way Judith caresses each note, bending them like a tear rolling down someone's face. Joe takes one of his mighty fine bass solos here, an inspired one, righteous and filled with passion. Judith's piece, "Bill," is a haunting, melancholy song in which Judith plays the stunning melody while Joe just punctuates with a handful of well-placed notes that resonate just right. "In the White" features a touching double bowed melody as the theme. While Judith plays each note with intense concentration, Joe burns profusely underneath. Then the roles are switched while Joe bows with immense focus while Judith plucks quickly on top. Back and forth, back and forth, like a heated discussion that erupts and takes you along with it, never knowing where it will end but you know you are being uplifted nonetheless. Richie Beirach's "Elm" sounds like two ghosts hovering around one another, both with slightly bent drones. Judith plays that touching melody, making every note count, while Joe also extends the same spirit, again with just a few well-placed notes, plucked and then bowed. On "Baghdad Waltz," Joe explodes with one of those astonishing bass solos that must be heard to be believed. I haven't heard a string duo disc in a long while that is as good as this one. The last one that I can recall was Fred Hopkins and Deirdre Murray from more than a decade ago. Good company for this great contemporary duo.
 
Состав
Judith Insell - viola
Joe Fonda - bass
По всем вопросам пишите личное сообщение пользователю M0p94ok.
08:33
153
Нет комментариев. Ваш будет первым!