Вы используете незарегистрированную версию компонента "Вкладки"!

Поиск

(Free Improvisation) Jeb Bishop - Kent Kessler - Tim Mulvenna - Jeb Bishop Trio - 1997, FLAC (tracks+.cue) lossless

Треклист:
Jeb Bishop - Kent Kessler - Tim Mulvenna ~ Jeb Bishop Trio
Жанр: Free Improvisation
Страна-производитель диска: USA
Год издания диска: 1997
Издатель (лейбл): Okka Disk
Номер по каталогу: OD 12029
Страна: USA
Аудио кодек: FLAC (*.flac)
Тип рипа: tracks+.cue
Битрейт аудио: lossless
Продолжительность: 1:09:28
Источник (релизер): собственный рип с оригинального диска.
Наличие сканов в содержимом раздачи: да
Треклист:
1. Nomads (8:47)
2. Anticipation of an Embrace (8:25)
3. Cryptic Remark (7:27)
4. Pyramid (12:09)
5. Duress Duress (7:46)
6. When I Was (15:53)
7. Big Stubby (9:01)
 
Лог создания рипа
Exact Audio Copy V0.99 prebeta 5 from 4. May 2009
EAC extraction logfile from 11. January 2011, 20:40
Jeb Bishop Trio / Jeb Bishop Trio
Used drive : TSSTcorpCDDVDW SH-S222A Adapter: 1 ID: 0
Read mode : Secure
Utilize accurate stream : Yes
Defeat audio cache : Yes
Make use of C2 pointers : No
Read offset correction : 6
Overread into Lead-In and Lead-Out : No
Fill up missing offset samples with silence : Yes
Delete leading and trailing silent blocks : No
Null samples used in CRC calculations : Yes
Used interface : Installed external ASPI interface
Gap handling : Appended to previous track
Used output format : User Defined Encoder
Selected bitrate : 768 kBit/s
Quality : High
Add ID3 tag : No
Command line compressor : C:\Tool\Compress\FLAC\flac.exe
Additional command line options : -V -8 -T "ARTIST=%a" -T "TITLE=%t" -T "ALBUM=%g" -T "TRACKNUMBER=%n" -T "GENRE=%m" %s
TOC of the extracted CD
Track | Start | Length | Start sector | End sector
---------------------------------------------------------
1 | 0:00.00 | 8:47.50 | 0 | 39574
2 | 8:47.50 | 8:25.17 | 39575 | 77466
3 | 17:12.67 | 7:27.00 | 77467 | 110991
4 | 24:39.67 | 12:08.25 | 110992 | 165616
5 | 36:48.17 | 7:46.20 | 165617 | 200586
6 | 44:34.37 | 15:52.63 | 200587 | 272049
7 | 60:27.25 | 9:01.10 | 272050 | 312634
Track 1
Filename C:\! RUTRACKER\ru up\Jeb Bishop Trio - Jeb Bishop Trio (1998) [FLAC]\01 - Nomads.wav
Pre-gap length 0:00:02.00
Peak level 94.8 %
Track quality 99.9 %
Test CRC 58FAC68B
Copy CRC 58FAC68B
Cannot be verified as accurate (confidence 1) [DF76197E], AccurateRip returned [32881BDD]
Copy OK
Track 2
Filename C:\! RUTRACKER\ru up\Jeb Bishop Trio - Jeb Bishop Trio (1998) [FLAC]\02 - Anticipation of an Embrace.wav
Pre-gap length 0:00:03.73
Peak level 99.2 %
Track quality 100.0 %
Test CRC 13F1196C
Copy CRC 13F1196C
Cannot be verified as accurate (confidence 1) [9B90CA9E], AccurateRip returned [C428B5DA]
Copy OK
Track 3
Filename C:\! RUTRACKER\ru up\Jeb Bishop Trio - Jeb Bishop Trio (1998) [FLAC]\03 - Cryptic Remark.wav
Pre-gap length 0:00:03.73
Peak level 100.0 %
Track quality 100.0 %
Test CRC 6855B7E2
Copy CRC 6855B7E2
Cannot be verified as accurate (confidence 1) [60F6DDC2], AccurateRip returned [9780222C]
Copy OK
Track 4
Filename C:\! RUTRACKER\ru up\Jeb Bishop Trio - Jeb Bishop Trio (1998) [FLAC]\04 - Pyramid.wav
Pre-gap length 0:00:03.73
Peak level 90.4 %
Track quality 100.0 %
Test CRC 8E1BC012
Copy CRC 8E1BC012
Cannot be verified as accurate (confidence 1) [C2A4B693], AccurateRip returned [2633AD4F]
Copy OK
Track 5
Filename C:\! RUTRACKER\ru up\Jeb Bishop Trio - Jeb Bishop Trio (1998) [FLAC]\05 - Duress Duress.wav
Pre-gap length 0:00:03.73
Peak level 98.3 %
Track quality 100.0 %
Test CRC 83DFC9EA
Copy CRC 83DFC9EA
Cannot be verified as accurate (confidence 1) [0FFC6856], AccurateRip returned [F032A92D]
Copy OK
Track 6
Filename C:\! RUTRACKER\ru up\Jeb Bishop Trio - Jeb Bishop Trio (1998) [FLAC]\06 - When I Was.wav
Pre-gap length 0:00:03.73
Peak level 99.6 %
Track quality 100.0 %
Test CRC 50034997
Copy CRC 50034997
Cannot be verified as accurate (confidence 1) [8660CB7A], AccurateRip returned [3F13DD2E]
Copy OK
Track 7
Filename C:\! RUTRACKER\ru up\Jeb Bishop Trio - Jeb Bishop Trio (1998) [FLAC]\07 - Big Stubby.wav
Pre-gap length 0:00:03.73
Peak level 99.8 %
Track quality 100.0 %
Test CRC B5D2A9FA
Copy CRC B5D2A9FA
Cannot be verified as accurate (confidence 1) [211F49DC], AccurateRip returned [B54C238C]
Copy OK
No tracks could be verified as accurate
You may have a different pressing from the one(s) in the database
No errors occurred
End of status report
 
Содержание индексной карты (.CUE)
REM GENRE "Free Jazz"
REM DATE 1998
REM DISCID 56104807
REM COMMENT "ExactAudioCopy v0.99pb5"
PERFORMER "Jeb Bishop Trio"
TITLE "Jeb Bishop Trio"
FILE "01 - Nomads.wav" WAVE
TRACK 01 AUDIO
TITLE "Nomads"
PERFORMER "Jeb Bishop Trio"
INDEX 01 00:00:00
TRACK 02 AUDIO
TITLE "Anticipation of an Embrace"
PERFORMER "Jeb Bishop Trio"
INDEX 00 08:43:70
FILE "02 - Anticipation of an Embrace.wav" WAVE
INDEX 01 00:00:00
TRACK 03 AUDIO
TITLE "Cryptic Remark"
PERFORMER "Jeb Bishop Trio"
INDEX 00 08:21:37
FILE "03 - Cryptic Remark.wav" WAVE
INDEX 01 00:00:00
TRACK 04 AUDIO
TITLE "Pyramid"
PERFORMER "Jeb Bishop Trio"
INDEX 00 07:23:20
FILE "04 - Pyramid.wav" WAVE
INDEX 01 00:00:00
TRACK 05 AUDIO
TITLE "Duress Duress"
PERFORMER "Jeb Bishop Trio"
INDEX 00 12:04:45
FILE "05 - Duress Duress.wav" WAVE
INDEX 01 00:00:00
TRACK 06 AUDIO
TITLE "When I Was"
PERFORMER "Jeb Bishop Trio"
INDEX 00 07:42:40
FILE "06 - When I Was.wav" WAVE
INDEX 01 00:00:00
TRACK 07 AUDIO
TITLE "Big Stubby"
PERFORMER "Jeb Bishop Trio"
INDEX 00 15:49:08
FILE "07 - Big Stubby.wav" WAVE
INDEX 01 00:00:00
Доп. информация:
Recorded at Airwave, Chicago, Nov. 29th, 1997.
 
Об альбоме (сборнике)
Chicago's Okkadisk label presents another album filled with a refreshing variety of material from fiery and skilled players. The Jeb Bishop Trio consists of bassist Kent Kessler, drummer Tim Mulvenna, and the leader and trombonist Jeb Bishop, three Chicago-based musicians with an open-minded approach to jazz and improvisation. All bring a depth of experience that is surprising, considering the fact that they're regarded as being of the "younger generation." Each also has found his own voice and instrumental style, and they come together on this album in a strong display of what all of the hype regarding Chicago is about. Bishop, Kessler, and Mulvenna travel from the slightly wistful, mourning nostalgia of "Nomads," which has prominent moments of bass and trombone brilliance, to the straight-ahead cymbal ride and bass walk in "Anticipation of an Embrace," to the synchronized, lengthy, and grooving phrases that book-end sections of unraveling in "Cryptic Remark." Jeb Bishop Trio is a well-done, excellent listen with strong soloing by all.
 
Состав
Jeb Bishop — trombone
Kent Kessler — bass
Tim Mulvenna — drums
Any questions -> support@pro-jazz.com. По всем вопросам пишите -> support@pro-jazz.com
08:32
137
Нет комментариев. Ваш будет первым!