Вы используете незарегистрированную версию компонента "Вкладки"!

Поиск

(Free Improvisation) Matthew Shipp Trio - Circular Temple - 1992, FLAC (tracks+.cue) lossless

Треклист:
Matthew Shipp Trio ~ Circular Temple
Жанр: Free Improvisation
Страна-производитель диска: USA
Год издания диска: 1992
Издатель (лейбл): Infinite Zero Archive
Номер по каталогу: 9 14506-2
Страна: USA
Аудио кодек: FLAC (*.flac)
Тип рипа: tracks+.cue
Битрейт аудио: lossless
Продолжительность: 46:16
Источник (релизер): собственный рип с оригинального диска.
Наличие сканов в содержимом раздачи: да
Треклист:
01. Circular Temple #1
02. Circular Temple #2 (Monk's Nightmare)
03. Circular Temple #3
04. Circular Temple #4
 
Лог создания рипа
Exact Audio Copy V0.99 prebeta 5 from 4. May 2009
EAC extraction logfile from 4. February 2011, 20:29
Matthew Shipp Trio / Circular Temple
Used drive : TSSTcorpCDDVDW SH-S222A Adapter: 1 ID: 0
Read mode : Secure
Utilize accurate stream : Yes
Defeat audio cache : Yes
Make use of C2 pointers : No
Read offset correction : 6
Overread into Lead-In and Lead-Out : No
Fill up missing offset samples with silence : Yes
Delete leading and trailing silent blocks : No
Null samples used in CRC calculations : Yes
Used interface : Installed external ASPI interface
Gap handling : Appended to previous track
Used output format : User Defined Encoder
Selected bitrate : 768 kBit/s
Quality : High
Add ID3 tag : No
Command line compressor : C:\Tool\Compress\FLAC\flac.exe
Additional command line options : -V -8 -T "ARTIST=%a" -T "TITLE=%t" -T "ALBUM=%g" -T "TRACKNUMBER=%n" -T "GENRE=%m" %s
TOC of the extracted CD
Track | Start | Length | Start sector | End sector
---------------------------------------------------------
1 | 0:00.32 | 6:29.23 | 32 | 29229
2 | 6:29.55 | 10:05.42 | 29230 | 74646
3 | 16:35.22 | 3:50.60 | 74647 | 91956
4 | 20:26.07 | 25:50.50 | 91957 | 208256
Track 1
Filename C:\! RUTRACKER\ru up\Matthew Shipp Trio - Circular Temple (1994) [FLAC]\01 - Circular Temple #1.wav
Pre-gap length 0:00:02.42
Peak level 94.6 %
Track quality 100.0 %
Test CRC 34F1CFF6
Copy CRC 34F1CFF6
Accurately ripped (confidence 2) [74AAC826]
Copy OK
Track 2
Filename C:\! RUTRACKER\ru up\Matthew Shipp Trio - Circular Temple (1994) [FLAC]\02 - Circular Temple #2 (Monk's Nightmare).wav
Pre-gap length 0:00:03.38
Peak level 94.6 %
Track quality 100.0 %
Test CRC 323AD3D8
Copy CRC 323AD3D8
Accurately ripped (confidence 2) [D243DB45]
Copy OK
Track 3
Filename C:\! RUTRACKER\ru up\Matthew Shipp Trio - Circular Temple (1994) [FLAC]\03 - Circular Temple #3.wav
Pre-gap length 0:00:03.52
Peak level 94.6 %
Track quality 100.0 %
Test CRC 561AFBF0
Copy CRC 561AFBF0
Accurately ripped (confidence 2) [E0B01B3E]
Copy OK
Track 4
Filename C:\! RUTRACKER\ru up\Matthew Shipp Trio - Circular Temple (1994) [FLAC]\04 - Circular Temple #4.wav
Pre-gap length 0:00:02.98
Peak level 94.6 %
Track quality 100.0 %
Test CRC E778739A
Copy CRC E778739A
Accurately ripped (confidence 2) [1F89DC5A]
Copy OK
All tracks accurately ripped
No errors occurred
End of status report
 
Содержание индексной карты (.CUE)
REM GENRE "Free Jazz"
REM DATE 1990
REM DISCID 350AD804
REM COMMENT "ExactAudioCopy v0.99pb5"
CATALOG 0075994565323
PERFORMER "Matthew Shipp Trio"
TITLE "Circular Temple"
FILE "01 - Circular Temple #1.wav" WAVE
TRACK 01 AUDIO
TITLE "Circular Temple #1"
PERFORMER "Matthew Shipp Trio"
PREGAP 00:00:32
INDEX 01 00:00:00
TRACK 02 AUDIO
TITLE "Circular Temple #2 (Monk's Nightmare)"
PERFORMER "Matthew Shipp Trio"
INDEX 00 06:25:69
FILE "02 - Circular Temple #2 (Monk's Nightmare).wav" WAVE
INDEX 01 00:00:00
TRACK 03 AUDIO
TITLE "Circular Temple #3"
PERFORMER "Matthew Shipp Trio"
INDEX 00 10:02:03
FILE "03 - Circular Temple #3.wav" WAVE
INDEX 01 00:00:00
TRACK 04 AUDIO
TITLE "Circular Temple #4"
PERFORMER "Matthew Shipp Trio"
INDEX 00 03:47:61
FILE "04 - Circular Temple #4.wav" WAVE
INDEX 01 00:00:00
Доп. информация:
Recorded October 16, 1990 at Seltzer Sound, N.Y.C.
 
Об альбоме (сборнике)
Circular Temple is a "suite for piano, bass, and drums" performed in a free-form jazz style.
 
Состав
Matthew Shipp - Piano
William Parker - Bass
Whit Dickey - Drums
По всем вопросам пишите личное сообщение пользователю M0p94ok.
08:34
119
Нет комментариев. Ваш будет первым!