Вы используете незарегистрированную версию компонента "Вкладки"!

Поиск

(Free Improvisation) Simon Picard, Paul Rogers, Tony Marsh - News From The North - 1993, FLAC (image+.cue), lossless

(Free Improvisation) Simon Picard, Paul Rogers, Tony Marsh - News From The North - 1993, FLAC (image+.cue), lossless
Треклист:
Simon Picard, Paul Rogers, Tony Marsh / News From The North
Жанр: Free Improvisation
Страна-производитель диска: Switzerland
Год издания: 1993
Издатель (лейбл): Intakt Records
Номер по каталогу: Intakt CD 028
Аудиокодек: FLAC (*.flac)
Тип рипа: image+.cue
Битрейт аудио: lossless
Продолжительность: 63:56
Источник (релизер): cd
Наличие сканов в содержимом раздачи: нет
Треклист:
1 Liver Friction 9:30
2 Plump But Expansive 4:39
3 Nervy 5:21
4 Nautic 6:05
5 Shenanigan 5:17
6 Volute 6:26
7 Temporal 2:47
8 Acoustic Wonders 4:45
9 B'zoo 5:38
10 News From The North 8:01
11 In Toto 5:27
 
Лог создания рипа
Exact Audio Copy V1.0 beta 2 from 29. April 2011
EAC extraction logfile from 9. November 2012, 10:57
Simon Picard, Paul Rogers, Tony Marsh / News From The North
Used drive : Optiarc DVD RW AD-7170A Adapter: 0 ID: 0
Read mode : Secure
Utilize accurate stream : Yes
Defeat audio cache : Yes
Make use of C2 pointers : No
Read offset correction : 48
Overread into Lead-In and Lead-Out : No
Fill up missing offset samples with silence : Yes
Delete leading and trailing silent blocks : No
Null samples used in CRC calculations : Yes
Used interface : Native Win32 interface for Win NT & 2000
Used output format : User Defined Encoder
Selected bitrate : 320 kBit/s
Quality : High
Add ID3 tag : No
Command line compressor : C:\Program Files\Exact Audio Copy\Flac\flac.exe
Additional command line options : -V -8 -T "Date=%year%" -T "Genre=%genre%" %source%
TOC of the extracted CD
Track | Start | Length | Start sector | End sector
---------------------------------------------------------
1 | 0:00.00 | 9:30.62 | 0 | 42811
2 | 9:30.62 | 4:39.00 | 42812 | 63736
3 | 14:09.62 | 5:21.00 | 63737 | 87811
4 | 19:30.62 | 6:05.00 | 87812 | 115186
5 | 25:35.62 | 5:17.00 | 115187 | 138961
6 | 30:52.62 | 6:26.00 | 138962 | 167911
7 | 37:18.62 | 2:47.00 | 167912 | 180436
8 | 40:05.62 | 4:45.00 | 180437 | 201811
9 | 44:50.62 | 5:38.00 | 201812 | 227161
10 | 50:28.62 | 8:01.00 | 227162 | 263236
11 | 58:29.62 | 5:27.13 | 263237 | 287774
Range status and errors
Selected range
Filename K:\ЕАС\Simon Picard, Paul Rogers, Tony Marsh - News From The North.wav
Peak level 92.8 %
Extraction speed 2.1 X
Range quality 100.0 %
Test CRC FED97E61
Copy CRC FED97E61
Copy OK
No errors occurred
AccurateRip summary
Track 1 accurately ripped (confidence 1) [315810ED] (AR v1)
Track 2 accurately ripped (confidence 1) [DDD1845E] (AR v1)
Track 3 accurately ripped (confidence 1) [A60DC7B3] (AR v1)
Track 4 accurately ripped (confidence 1) [DBBD3F6A] (AR v1)
Track 5 accurately ripped (confidence 1) [3CC49EC3] (AR v1)
Track 6 accurately ripped (confidence 1) [7957DC43] (AR v1)
Track 7 accurately ripped (confidence 1) [778B6DAB] (AR v1)
Track 8 accurately ripped (confidence 1) [17E2F31C] (AR v1)
Track 9 accurately ripped (confidence 1) [C83642F1] (AR v1)
Track 10 accurately ripped (confidence 1) [195451A6] (AR v1)
Track 11 accurately ripped (confidence 1) [B189AB93] (AR v1)
All tracks accurately ripped
End of status report
==== Log checksum C0547759DF833B19E1F4815F82ACC1BC74A30338602F6A70C157C91824D53C39 ====
 
Содержание индексной карты (.CUE)
REM GENRE Jazz
REM DATE 1993
REM DISCID 830EFD0B
REM COMMENT "ExactAudioCopy v1.0b2"
PERFORMER "Simon Picard, Paul Rogers, Tony Marsh"
TITLE "News From The North"
FILE "Simon Picard, Paul Rogers, Tony Marsh - News From The North.flac" WAVE
TRACK 01 AUDIO
TITLE "Liver Friction"
PERFORMER "Simon Picard, Paul Rogers, Tony Marsh"
INDEX 01 00:00:00
TRACK 02 AUDIO
TITLE "Plump But Expansive"
PERFORMER "Simon Picard, Paul Rogers, Tony Marsh"
INDEX 01 09:30:62
TRACK 03 AUDIO
TITLE "Nervy"
PERFORMER "Simon Picard, Paul Rogers, Tony Marsh"
INDEX 01 14:09:62
TRACK 04 AUDIO
TITLE "Nautic"
PERFORMER "Simon Picard, Paul Rogers, Tony Marsh"
INDEX 01 19:30:62
TRACK 05 AUDIO
TITLE "Shenanigan"
PERFORMER "Simon Picard, Paul Rogers, Tony Marsh"
INDEX 01 25:35:62
TRACK 06 AUDIO
TITLE "Volute"
PERFORMER "Simon Picard, Paul Rogers, Tony Marsh"
INDEX 01 30:52:62
TRACK 07 AUDIO
TITLE "Temporal"
PERFORMER "Simon Picard, Paul Rogers, Tony Marsh"
INDEX 01 37:18:62
TRACK 08 AUDIO
TITLE "Acoustic Wonders"
PERFORMER "Simon Picard, Paul Rogers, Tony Marsh"
INDEX 01 40:05:62
TRACK 09 AUDIO
TITLE "B'Zoo"
PERFORMER "Simon Picard, Paul Rogers, Tony Marsh"
INDEX 01 44:50:62
TRACK 10 AUDIO
TITLE "News From The North"
PERFORMER "Simon Picard, Paul Rogers, Tony Marsh"
INDEX 01 50:28:62
TRACK 11 AUDIO
TITLE "In Toto"
PERFORMER "Simon Picard, Paul Rogers, Tony Marsh"
INDEX 01 58:29:62
Доп. информация: Recorded on 6 December 1991
 
Состав
Double Bass – Paul Rogers
Drums – Tony Marsh
Tenor Saxophone – Simon Picard
Any questions -> support@pro-jazz.com. По всем вопросам пишите -> support@pro-jazz.com
05:17
133
Нет комментариев. Ваш будет первым!