Вы используете незарегистрированную версию компонента "Вкладки"!

Поиск

(Avant-Garde Jazz, Modern Composition) Brad Dutz - Brad Dutz - 1990, FLAC (tracks+.cue), lossless

(Avant-Garde Jazz, Modern Composition) Brad Dutz - Brad Dutz - 1990, FLAC (tracks+.cue), lossless
Треклист:
Brad Dutz / Brad Dutz
Жанр: Avant-Garde Jazz, Modern Composition
Страна-производитель диска: US
Год издания: 1990
Издатель (лейбл): 9 Winds
Номер по каталогу: NWCD0141
Страна: US
Аудиокодек: FLAC (*.flac)
Тип рипа: tracks+.cue
Битрейт аудио: lossless
Продолжительность: 64:21
Источник (релизер): свой фирменный диск
Наличие сканов в содержимом раздачи: нет
Треклист:
1 Klatu 4:53
2 The Till 5:15
3 Climbers 4:03
4 Diversion 4:26
5 Leaf Germs 6:10
6 Elasticity 5:22
7 Age Of Steam 6:44
8 Burrowing Skyward 4:29
9 Creatures 5:04
10 Studies In "E" 5:15
11 Fowl Or Poultry 7:07
12 Baja Men 4:56
 
Лог создания рипа
Exact Audio Copy V1.0 beta 2 from 29. April 2011
EAC extraction logfile from 9. November 2012, 23:20
Brad Dutz / Brad Dutz
Used drive : PIONEER DVD-RW DVR-115D Adapter: 0 ID: 0
Read mode : Secure
Utilize accurate stream : Yes
Defeat audio cache : Yes
Make use of C2 pointers : No
Read offset correction : 48
Overread into Lead-In and Lead-Out : No
Fill up missing offset samples with silence : Yes
Delete leading and trailing silent blocks : No
Null samples used in CRC calculations : Yes
Used interface : Installed external ASPI interface
Gap handling : Appended to previous track
Used output format : User Defined Encoder
Selected bitrate : 896 kBit/s
Quality : High
Add ID3 tag : No
Command line compressor : C:\Program Files\Exact Audio Copy\FLAC\FLAC.EXE
Additional command line options : -6 -V -T "ARTIST=%artist%" -T "TITLE=%title%" -T "ALBUM=%albumtitle%" -T "DATE=%year%" -T "TRACKNUMBER=%tracknr%" -T "GENRE=%genre%" -T "COMMENT=%comment%" -T "BAND=%albuminterpret%" -T "COMPOSER=%composer%" %haslyrics%--ta
TOC of the extracted CD
Track | Start | Length | Start sector | End sector
---------------------------------------------------------
1 | 0:00.00 | 4:56.52 | 0 | 22251
2 | 4:56.52 | 5:18.35 | 22252 | 46136
3 | 10:15.12 | 4:04.43 | 46137 | 64479
4 | 14:19.55 | 4:31.12 | 64480 | 84816
5 | 18:50.67 | 6:12.50 | 84817 | 112766
6 | 25:03.42 | 5:24.23 | 112767 | 137089
7 | 30:27.65 | 6:47.50 | 137090 | 167664
8 | 37:15.40 | 4:31.62 | 167665 | 188051
9 | 41:47.27 | 5:07.15 | 188052 | 211091
10 | 46:54.42 | 5:18.38 | 211092 | 234979
11 | 52:13.05 | 7:10.47 | 234980 | 267276
12 | 59:23.52 | 4:57.23 | 267277 | 289574
Track 1
Filename D:\zzz\01 - Klatu.wav
Pre-gap length 0:00:02.00
Peak level 93.0 %
Extraction speed 4.5 X
Track quality 100.0 %
Test CRC 3AE97181
Copy CRC 3AE97181
Track not present in AccurateRip database
Copy OK
Track 2
Filename D:\zzz\02 - The Till.wav
Pre-gap length 0:00:02.45
Peak level 93.0 %
Extraction speed 5.1 X
Track quality 100.0 %
Test CRC C926EAE2
Copy CRC C926EAE2
Track not present in AccurateRip database
Copy OK
Track 3
Filename D:\zzz\03 - Climbers.wav
Pre-gap length 0:00:02.27
Peak level 99.1 %
Extraction speed 5.4 X
Track quality 100.0 %
Test CRC 758167CF
Copy CRC 758167CF
Track not present in AccurateRip database
Copy OK
Track 4
Filename D:\zzz\04 - Diversion.wav
Pre-gap length 0:00:01.10
Peak level 90.0 %
Extraction speed 5.8 X
Track quality 100.0 %
Test CRC 03C27E00
Copy CRC 03C27E00
Track not present in AccurateRip database
Copy OK
Track 5
Filename D:\zzz\05 - Leaf Germs.wav
Pre-gap length 0:00:04.05
Peak level 89.4 %
Extraction speed 6.4 X
Track quality 100.0 %
Test CRC B78A24DA
Copy CRC B78A24DA
Track not present in AccurateRip database
Copy OK
Track 6
Filename D:\zzz\06 - Elasticity.wav
Pre-gap length 0:00:01.20
Peak level 93.4 %
Extraction speed 6.8 X
Track quality 100.0 %
Test CRC D01665F5
Copy CRC D01665F5
Track not present in AccurateRip database
Copy OK
Track 7
Filename D:\zzz\07 - Age of Steam.wav
Pre-gap length 0:00:01.33
Peak level 92.6 %
Extraction speed 6.3 X
Track quality 99.9 %
Test CRC 4F8BBAB7
Copy CRC 4F8BBAB7
Track not present in AccurateRip database
Copy OK
Track 8
Filename D:\zzz\08 - Burrowing Skyward.wav
Pre-gap length 0:00:01.70
Peak level 91.9 %
Extraction speed 7.4 X
Track quality 100.0 %
Test CRC CB0EAEF3
Copy CRC CB0EAEF3
Track not present in AccurateRip database
Copy OK
Track 9
Filename D:\zzz\09 - Creatures.wav
Pre-gap length 0:00:02.45
Peak level 91.9 %
Extraction speed 7.7 X
Track quality 100.0 %
Test CRC E020EA63
Copy CRC E020EA63
Track not present in AccurateRip database
Copy OK
Track 10
Filename D:\zzz\10 - Studies in ''E''.wav
Pre-gap length 0:00:02.65
Peak level 82.2 %
Extraction speed 8.1 X
Track quality 100.0 %
Test CRC 86FAAEED
Copy CRC 86FAAEED
Track not present in AccurateRip database
Copy OK
Track 11
Filename D:\zzz\11 - Fowl or Poultry.wav
Pre-gap length 0:00:02.00
Peak level 94.2 %
Extraction speed 8.0 X
Track quality 99.9 %
Test CRC 62DDB456
Copy CRC 62DDB456
Track not present in AccurateRip database
Copy OK
Track 12
Filename D:\zzz\12 - Baja Men.wav
Pre-gap length 0:00:01.47
Peak level 92.6 %
Extraction speed 8.6 X
Track quality 100.0 %
Test CRC B61F76D8
Copy CRC B61F76D8
Track not present in AccurateRip database
Copy OK
None of the tracks are present in the AccurateRip database
No errors occurred
End of status report
==== Log checksum 13637C5A36585A759A66720B2A30C1D18FA87CFF9EDE5AE26222174329CB1134 ====
 
Содержание индексной карты (.CUE)
REM GENRE Jazz
REM DATE 1990
REM DISCID A60F150C
REM COMMENT "ExactAudioCopy v1.0b2"
PERFORMER "Brad Dutz"
TITLE "Brad Dutz"
FILE "01 - Klatu.wav" WAVE
TRACK 01 AUDIO
TITLE "Klatu"
PERFORMER "Brad Dutz"
INDEX 01 00:00:00
TRACK 02 AUDIO
TITLE "The Till"
PERFORMER "Brad Dutz"
INDEX 00 04:54:07
FILE "02 - The Till.wav" WAVE
INDEX 01 00:00:00
TRACK 03 AUDIO
TITLE "Climbers"
PERFORMER "Brad Dutz"
INDEX 00 05:16:08
FILE "03 - Climbers.wav" WAVE
INDEX 01 00:00:00
TRACK 04 AUDIO
TITLE "Diversion"
PERFORMER "Brad Dutz"
INDEX 00 04:03:33
FILE "04 - Diversion.wav" WAVE
INDEX 01 00:00:00
TRACK 05 AUDIO
TITLE "Leaf Germs"
PERFORMER "Brad Dutz"
INDEX 00 04:27:07
FILE "05 - Leaf Germs.wav" WAVE
INDEX 01 00:00:00
TRACK 06 AUDIO
TITLE "Elasticity"
PERFORMER "Brad Dutz"
INDEX 00 06:11:30
FILE "06 - Elasticity.wav" WAVE
INDEX 01 00:00:00
TRACK 07 AUDIO
TITLE "Age of Steam"
PERFORMER "Brad Dutz"
INDEX 00 05:22:65
FILE "07 - Age of Steam.wav" WAVE
INDEX 01 00:00:00
TRACK 08 AUDIO
TITLE "Burrowing Skyward"
PERFORMER "Brad Dutz"
INDEX 00 06:45:55
FILE "08 - Burrowing Skyward.wav" WAVE
INDEX 01 00:00:00
TRACK 09 AUDIO
TITLE "Creatures"
PERFORMER "Brad Dutz"
INDEX 00 04:29:17
FILE "09 - Creatures.wav" WAVE
INDEX 01 00:00:00
TRACK 10 AUDIO
TITLE "Studies in ''E''"
PERFORMER "Brad Dutz"
INDEX 00 05:04:25
FILE "10 - Studies in ''E''.wav" WAVE
INDEX 01 00:00:00
TRACK 11 AUDIO
TITLE "Fowl or Poultry"
PERFORMER "Brad Dutz"
INDEX 00 05:16:38
FILE "11 - Fowl or Poultry.wav" WAVE
INDEX 01 00:00:00
TRACK 12 AUDIO
TITLE "Baja Men"
PERFORMER "Brad Dutz"
INDEX 00 07:09:00
FILE "12 - Baja Men.wav" WAVE
INDEX 01 00:00:00
 
Лог проверки качества
d:\>d:\aucdtect -d/-m0 d:\zzz\*.wav
auCDtect: CD records authenticity detector, version 0.8.2
Copyright (c) 2004 Oleg Berngardt. All rights reserved.
Copyright (c) 2004 Alexander Djourik. All rights reserved.
------------------------------------------------------------
Processing file: [01. Klatu.wav]
------------------------------------------------------------
This track looks like CDDA with probability 100%
------------------------------------------------------------
Processing file: [02. The Till.wav]
------------------------------------------------------------
This track looks like CDDA with probability 100%
------------------------------------------------------------
Processing file: [03. Climbers.wav]
------------------------------------------------------------
This track looks like CDDA with probability 100%
------------------------------------------------------------
Processing file: [04. Diversion.wav]
------------------------------------------------------------
This track looks like CDDA with probability 100%
------------------------------------------------------------
Processing file: [05. Leaf Germs.wav]
------------------------------------------------------------
This track looks like CDDA with probability 100%
------------------------------------------------------------
Processing file: [06. Elasticity.wav]
------------------------------------------------------------
This track looks like CDDA with probability 100%
------------------------------------------------------------
Processing file: [07. Age of Steam.wav]
------------------------------------------------------------
This track looks like CDDA with probability 100%
------------------------------------------------------------
Processing file: [08. Burrowing Skyward.wav]
------------------------------------------------------------
This track looks like CDDA with probability 100%
------------------------------------------------------------
Processing file: [09. Creatures.wav]
------------------------------------------------------------
This track looks like CDDA with probability 100%
------------------------------------------------------------
Processing file: [10. Studies in ''E''.wav]
------------------------------------------------------------
This track looks like CDDA with probability 100%
------------------------------------------------------------
Processing file: [11. Fowl or Poultry.wav]
------------------------------------------------------------
This track looks like CDDA with probability 100%
------------------------------------------------------------
Processing file: [12. Baja Men.wav]
------------------------------------------------------------
This track looks like CDDA with probability 100%
------------------------------------------------------------
Final Conclusion:
------------------------------------------------------------
These tracks looks like CDDA with probability 100%
 
Состав
Brad Dutz: hand drums, mallets, midi-mallet controlled samplers
Tom McMoran: piano on 8,11
Bernie Dressel: drumset on 2,4
Chet McCracken: drumset on 11
Any questions -> support@pro-jazz.com. По всем вопросам пишите -> support@pro-jazz.com
05:18
150
Нет комментариев. Ваш будет первым!