Вы используете незарегистрированную версию компонента "Вкладки"!

Поиск

(Free Jazz, Math Rock, Avantgarde, Free Improvisati) Zu & Mats Gustafsson - How To Raise An Ox - 2005, FLAC (image+.cue), lossless

(Free Jazz, Math Rock, Avantgarde, Free Improvisati) Zu & Mats Gustafsson - How To Raise An Ox - 2005, FLAC (image+.cue), lossless
Треклист:
Zu & Mats Gustafsson / How To Raise An Ox
Жанр: Free Jazz, Math Rock, Avantgarde, Free Improvisati
Страна-производитель диска: US
Год издания: 2005
Издатель (лейбл): Atavistic
Номер по каталогу: ALP168CD
Аудиокодек: FLAC (*.flac)
Тип рипа: image+.cue
Битрейт аудио: lossless
Продолжительность: 40:31
Источник (релизер): cd
Наличие сканов в содержимом раздачи: нет
Треклист:
1 Over A Furnace 1:46
2 How To Raise An Ox 6:56
3 Eating The Landscape 4:18
4 The King Devours His Sons 7:21
5 Bring The War Back Home 1:57
6 Meat Eater, Solar Bird 6:14
7 Palace Of Reptiles 3:02
8 Beasts Only Die To Be Born 4:07
9 The Tiger Teaches The Lamb 4:50
 
Лог создания рипа
Exact Audio Copy V1.0 beta 2 from 29. April 2011
EAC extraction logfile from 9. November 2012, 11:48
Zu & Mats Gustafsson / How To Raise An Ox
Used drive : Optiarc DVD RW AD-7170A Adapter: 0 ID: 0
Read mode : Secure
Utilize accurate stream : Yes
Defeat audio cache : Yes
Make use of C2 pointers : No
Read offset correction : 48
Overread into Lead-In and Lead-Out : No
Fill up missing offset samples with silence : Yes
Delete leading and trailing silent blocks : No
Null samples used in CRC calculations : Yes
Used interface : Native Win32 interface for Win NT & 2000
Used output format : User Defined Encoder
Selected bitrate : 320 kBit/s
Quality : High
Add ID3 tag : No
Command line compressor : C:\Program Files\Exact Audio Copy\Flac\flac.exe
Additional command line options : -V -8 -T "Date=%year%" -T "Genre=%genre%" %source%
TOC of the extracted CD
Track | Start | Length | Start sector | End sector
---------------------------------------------------------
1 | 0:00.00 | 1:46.13 | 0 | 7962
2 | 1:46.13 | 6:56.30 | 7963 | 39192
3 | 8:42.43 | 4:17.66 | 39193 | 58533
4 | 13:00.34 | 7:21.17 | 58534 | 91625
5 | 20:21.51 | 1:57.19 | 91626 | 100419
6 | 22:18.70 | 6:13.14 | 100420 | 128408
7 | 28:32.09 | 3:02.13 | 128409 | 142071
8 | 31:34.22 | 4:06.62 | 142072 | 160583
9 | 35:41.09 | 4:50.50 | 160584 | 182383
Range status and errors
Selected range
Filename K:\ЕАС\Zu & Mats Gustafsson - How To Raise An Ox.wav
Peak level 98.8 %
Extraction speed 1.8 X
Range quality 99.9 %
Test CRC E39C1DFE
Copy CRC E39C1DFE
Copy OK
No errors occurred
AccurateRip summary
Track 1 accurately ripped (confidence 2) [7179AC55] (AR v1)
Track 2 accurately ripped (confidence 2) [C21CE114] (AR v1)
Track 3 accurately ripped (confidence 2) [2AAE83C5] (AR v1)
Track 4 accurately ripped (confidence 2) [33F75632] (AR v1)
Track 5 accurately ripped (confidence 2) [2A31FE4D] (AR v1)
Track 6 accurately ripped (confidence 2) [2283FB09] (AR v1)
Track 7 accurately ripped (confidence 2) [F122D482] (AR v1)
Track 8 accurately ripped (confidence 2) [90A3D373] (AR v1)
Track 9 accurately ripped (confidence 2) [0FBB4555] (AR v1)
All tracks accurately ripped
End of status report
==== Log checksum 069FB898E3DB038E21B2B08F7E4388ACB8342C2BF81511683FBE088B3019007E ====
 
Содержание индексной карты (.CUE)
REM GENRE Jazz
REM DATE 2005
REM DISCID 66097F09
REM COMMENT "ExactAudioCopy v1.0b2"
PERFORMER "Zu & Mats Gustafsson"
TITLE "How To Raise An Ox"
FILE "Zu & Mats Gustafsson - How To Raise An Ox.flac" WAVE
TRACK 01 AUDIO
TITLE "Over A Furnace"
PERFORMER "Zu & Mats Gustafsson"
ISRC 000000000000
INDEX 01 00:00:00
TRACK 02 AUDIO
TITLE "How To Raise An Ox"
PERFORMER "Zu & Mats Gustafsson"
ISRC 000000000000
INDEX 00 01:43:13
INDEX 01 01:46:13
TRACK 03 AUDIO
TITLE "Eating The Landscape"
PERFORMER "Zu & Mats Gustafsson"
ISRC 000000000000
INDEX 00 08:39:43
INDEX 01 08:42:43
TRACK 04 AUDIO
TITLE "The King Deavours His Sons"
PERFORMER "Zu & Mats Gustafsson"
ISRC 000000000000
INDEX 00 12:57:34
INDEX 01 13:00:34
TRACK 05 AUDIO
TITLE "Bring The War Back Home"
PERFORMER "Zu & Mats Gustafsson"
ISRC 000000000000
INDEX 00 20:18:51
INDEX 01 20:21:51
TRACK 06 AUDIO
TITLE "Meat Eater, Solar Bird"
PERFORMER "Zu & Mats Gustafsson"
ISRC 000000000000
INDEX 00 22:15:70
INDEX 01 22:18:70
TRACK 07 AUDIO
TITLE "Palace Of Reptiles"
PERFORMER "Zu & Mats Gustafsson"
ISRC 000000000000
INDEX 00 28:29:09
INDEX 01 28:32:09
TRACK 08 AUDIO
TITLE "Beasts Only Die To Be Born"
PERFORMER "Zu & Mats Gustafsson"
ISRC 000000000000
INDEX 00 31:31:22
INDEX 01 31:34:22
TRACK 09 AUDIO
TITLE "The Tiger Teaches The Lamb"
PERFORMER "Zu & Mats Gustafsson"
ISRC 000000000000
INDEX 00 35:38:09
INDEX 01 35:41:09
Доп. информация: Recorded at Locomotore Studio, Rome October 2004.
 
Состав
Baritone Saxophone – Luca, Mats
Bass – Massimo
Drums – Jacopo
Any questions -> support@pro-jazz.com. По всем вопросам пишите -> support@pro-jazz.com
05:17
140
Нет комментариев. Ваш будет первым!