Вы используете незарегистрированную версию компонента "Вкладки"!

Поиск

(Free Improvisation) Rhodri Davies - Trem - 2002, FLAC (tracks+.cue), lossless

(Free Improvisation) Rhodri Davies - Trem - 2002, FLAC (tracks+.cue), lossless
Треклист:
Rhodri Davies / Trem
Жанр: Free Improvisation
Страна-производитель диска: Великобритания
Год издания: 2002
Издатель (лейбл): Confront
Номер по каталогу: Confront 11
Страна: Великобритания
Аудиокодек: FLAC (*.flac)
Тип рипа: tracks+.cue
Битрейт аудио: lossless
Продолжительность: 40:26
Источник (релизер): вот.сиди (brokenbones)
Наличие сканов в содержимом раздачи: нет
Треклист:
1 Cresis 8:45
2 Undur 5:04
3 Trem 7:02
4 Beres 6:24
5 Plosif 3:16
6 Berant 6:11
7 Atam 3:40
live concerts recorded at the St. Michael and All Angels Church, London:
1, 2: May 10, 2001
4, 6: November 22, 2001
3, 5, 7: December 7, 2001
 
Лог создания рипа
Exact Audio Copy V1.0 beta 1 from 15. November 2010
EAC extraction logfile from 20. March 2012, 20:17
Rhodri Davies / Trem
Used drive : MATSHITADVD-RAM UJ-841S Adapter: 0 ID: 0
Read mode : Secure
Utilize accurate stream : Yes
Defeat audio cache : Yes
Make use of C2 pointers : No
Read offset correction : 102
Overread into Lead-In and Lead-Out : No
Fill up missing offset samples with silence : Yes
Delete leading and trailing silent blocks : No
Null samples used in CRC calculations : Yes
Used interface : Native Win32 interface for Win NT & 2000
Gap handling : Appended to previous track
Used output format : User Defined Encoder
Selected bitrate : 128 kBit/s
Quality : High
Add ID3 tag : No
Command line compressor : C:\Program Files\Exact Audio Copy\Flac\flac.exe
Additional command line options : -V -8 -T "artist=%a" -T "title=%t" -T "album=%g" -T "date=%y" -T "tracknumber=%n" -T "genre=%m" %s
TOC of the extracted CD
Track | Start | Length | Start sector | End sector
---------------------------------------------------------
1 | 0:00.00 | 8:45.73 | 0 | 39447
2 | 8:45.73 | 5:04.22 | 39448 | 62269
3 | 13:50.20 | 7:02.36 | 62270 | 93955
4 | 20:52.56 | 6:24.25 | 93956 | 122780
5 | 27:17.06 | 3:16.59 | 122781 | 137539
6 | 30:33.65 | 6:11.40 | 137540 | 165404
7 | 36:45.30 | 3:40.68 | 165405 | 181972
Track 1
Filename C:\EAC Flac Rips\Rhodri Davies - Trem (2002)\01 Cresis.wav
Pre-gap length 0:00:02.00
Peak level 55.7 %
Extraction speed 1.4 X
Track quality 99.9 %
Test CRC A5F1A914
Copy CRC A5F1A914
Track not present in AccurateRip database
Copy OK
Track 2
Filename C:\EAC Flac Rips\Rhodri Davies - Trem (2002)\02 Undur.wav
Pre-gap length 0:00:00.05
Peak level 27.7 %
Extraction speed 1.6 X
Track quality 100.0 %
Test CRC CE214322
Copy CRC CE214322
Track not present in AccurateRip database
Copy OK
Track 3
Filename C:\EAC Flac Rips\Rhodri Davies - Trem (2002)\03 Trem.wav
Pre-gap length 0:00:00.05
Peak level 17.5 %
Extraction speed 1.8 X
Track quality 100.0 %
Test CRC D53664A9
Copy CRC D53664A9
Track not present in AccurateRip database
Copy OK
Track 4
Filename C:\EAC Flac Rips\Rhodri Davies - Trem (2002)\04 Beres.wav
Pre-gap length 0:00:00.05
Peak level 64.8 %
Extraction speed 1.8 X
Track quality 100.0 %
Test CRC B849E3EE
Copy CRC B849E3EE
Track not present in AccurateRip database
Copy OK
Track 5
Filename C:\EAC Flac Rips\Rhodri Davies - Trem (2002)\05 Plosif.wav
Pre-gap length 0:00:00.05
Peak level 51.8 %
Extraction speed 1.7 X
Track quality 100.0 %
Test CRC 776A32C2
Copy CRC 776A32C2
Track not present in AccurateRip database
Copy OK
Track 6
Filename C:\EAC Flac Rips\Rhodri Davies - Trem (2002)\06 Berant.wav
Pre-gap length 0:00:00.05
Peak level 18.9 %
Extraction speed 1.9 X
Track quality 100.0 %
Test CRC 2B6449CA
Copy CRC 2B6449CA
Track not present in AccurateRip database
Copy OK
Track 7
Filename C:\EAC Flac Rips\Rhodri Davies - Trem (2002)\07 Atam.wav
Pre-gap length 0:00:00.05
Peak level 12.2 %
Extraction speed 1.9 X
Track quality 100.0 %
Test CRC 9BDB93AA
Copy CRC 9BDB93AA
Track not present in AccurateRip database
Copy OK
None of the tracks are present in the AccurateRip database
No errors occurred
End of status report
==== Log checksum B8D1110DF2838820692B4CFB92FAD971CFB2415C3B0175ACDA48B7A5A1D549F7 ====
 
Содержание индексной карты (.CUE)
REM GENRE Avantgarde
REM DATE 2002
REM DISCID 58097A07
REM COMMENT "ExactAudioCopy v1.0b1"
PERFORMER "Rhodri Davies"
TITLE "Trem"
FILE "01 Cresis.wav" WAVE
TRACK 01 AUDIO
TITLE "Cresis"
PERFORMER "Rhodri Davies"
INDEX 01 00:00:00
TRACK 02 AUDIO
TITLE "Undur"
PERFORMER "Rhodri Davies"
INDEX 00 08:45:68
FILE "02 Undur.wav" WAVE
INDEX 01 00:00:00
TRACK 03 AUDIO
TITLE "Trem"
PERFORMER "Rhodri Davies"
INDEX 00 05:04:17
FILE "03 Trem.wav" WAVE
INDEX 01 00:00:00
TRACK 04 AUDIO
TITLE "Beres"
PERFORMER "Rhodri Davies"
INDEX 00 07:02:31
FILE "04 Beres.wav" WAVE
INDEX 01 00:00:00
TRACK 05 AUDIO
TITLE "Plosif"
PERFORMER "Rhodri Davies"
INDEX 00 06:24:20
FILE "05 Plosif.wav" WAVE
INDEX 01 00:00:00
TRACK 06 AUDIO
TITLE "Berant"
PERFORMER "Rhodri Davies"
INDEX 00 03:16:54
FILE "06 Berant.wav" WAVE
INDEX 01 00:00:00
TRACK 07 AUDIO
TITLE "Atam"
PERFORMER "Rhodri Davies"
INDEX 00 06:11:35
FILE "07 Atam.wav" WAVE
INDEX 01 00:00:00
 
Лог проверки качества
AUDIOCHECKER v2.0 beta (build 457) - by Dester - opdester@freemail.hu
~~~~~~~~~~~~~~~~~~~~~~~~~~~~~~~~~~
-=== DO NOT EDIT THIS FILE! ===-
Path: ...\Rhodri Davies - Trem (2002)
1 -=- 01 Cresis.flac -=- CDDA (100%)
2 -=- 02 Undur.flac -=- CDDA (99%)
3 -=- 03 Trem.flac -=- CDDA (100%)
4 -=- 04 Beres.flac -=- CDDA (100%)
5 -=- 05 Plosif.flac -=- CDDA (100%)
6 -=- 06 Berant.flac -=- CDDA (100%)
7 -=- 07 Atam.flac -=- CDDA (99%)
Summary 99,71% CDDA
8195172
 
Состав
Rhodri Davies harp, percussion (3), tape (3)
Any questions -> support@pro-jazz.com. По всем вопросам пишите -> support@pro-jazz.com
23:15
123
Нет комментариев. Ваш будет первым!