Вы используете незарегистрированную версию компонента "Вкладки"!

Поиск

(Free Improvisation) Michel Doneda & Pierre-Olivier Boulant - Sopranino / Radio - 2003, FLAC (tracks+.cue), lossless

(Free Improvisation) Michel Doneda & Pierre-Olivier Boulant - Sopranino / Radio - 2003, FLAC (tracks+.cue), lossless
Треклист:
Michel Doneda & Pierre-Olivier Boulant - Sopranino / Radio
Жанр: Free Improvisation
Страна-производитель диска: Италия
Год издания: 2003
Издатель (лейбл): Fringes Recordings
Номер по каталогу: Fringes 13
Страна: Франция
Аудиокодек: FLAC (*.flac)
Тип рипа: tracks+.cue
Битрейт аудио: lossless
Продолжительность: 1:03:42
Источник (релизер): вот.сиди (Ludovico)
Наличие сканов в содержимом раздачи: нет
Треклист:
1-64 untitled
1~63 Recorded at Michel's home by the fire.
Concerto for Sopranino saxophone and radio. Little fragments with no particular order.
64 Recorded in four locations in the Montagne Noire just a few minutes from Michel house and in studio for the radio parts.
 
Лог создания рипа
Exact Audio Copy V1.0 beta 3 from 29. August 2011
EAC extraction logfile from 20. March 2012, 23:09
Michel Doneda & Pierre-Olivier Boulant / Sopranino / Radio
Used drive : TSSTcorpCDDVDW SE-S084F Adapter: 4 ID: 0
Read mode : Secure
Utilize accurate stream : Yes
Defeat audio cache : Yes
Make use of C2 pointers : No
Read offset correction : 6
Overread into Lead-In and Lead-Out : No
Fill up missing offset samples with silence : Yes
Delete leading and trailing silent blocks : No
Null samples used in CRC calculations : Yes
Used interface : Installed external ASPI interface
Gap handling : Appended to previous track
Used output format : User Defined Encoder
Selected bitrate : 1024 kBit/s
Quality : High
Add ID3 tag : No
Command line compressor : C:\Program Files\Exact Audio Copy\FLAC\FLAC.EXE
Additional command line options : -8 -V -T "ARTIST=%artist%" -T "TITLE=%title%" -T "ALBUM=%albumtitle%" -T "DATE=%year%" -T "TRACKNUMBER=%tracknr%" -T "GENRE=%genre%" -T "PERFORMER=%albuminterpret%" -T "COMPOSER=%composer%" %haslyrics%--tag-from-file=LYRICS="%lyricsfile%"%haslyrics% -T "ALBUMARTIST=%albumartist%" -T "DISCNUMBER=%cdnumber%" -T "TOTALDISCS=%totalcds%" -T "TOTALTRACKS=%numtracks%" -T "COMMENT=%comment%" %source% -o %dest%
TOC of the extracted CD
Track | Start | Length | Start sector | End sector
---------------------------------------------------------
1 | 0:00.00 | 0:14.02 | 0 | 1051
2 | 0:14.02 | 0:17.25 | 1052 | 2351
3 | 0:31.27 | 0:22.49 | 2352 | 4050
4 | 0:54.01 | 0:14.43 | 4051 | 5143
5 | 1:08.44 | 0:18.03 | 5144 | 6496
6 | 1:26.47 | 0:35.67 | 6497 | 9188
7 | 2:02.39 | 0:23.63 | 9189 | 10976
8 | 2:26.27 | 0:32.51 | 10977 | 13427
9 | 2:59.03 | 0:27.31 | 13428 | 15483
10 | 3:26.34 | 0:33.05 | 15484 | 17963
11 | 3:59.39 | 0:24.39 | 17964 | 19802
12 | 4:24.03 | 0:20.35 | 19803 | 21337
13 | 4:44.38 | 0:26.28 | 21338 | 23315
14 | 5:10.66 | 0:23.23 | 23316 | 25063
15 | 5:34.14 | 0:33.69 | 25064 | 27607
16 | 6:08.08 | 0:27.31 | 27608 | 29663
17 | 6:35.39 | 0:23.22 | 29664 | 31410
18 | 6:58.61 | 0:16.61 | 31411 | 32671
19 | 7:15.47 | 0:22.49 | 32672 | 34370
20 | 7:38.21 | 0:24.13 | 34371 | 36183
21 | 8:02.34 | 0:30.08 | 36184 | 38441
22 | 8:32.42 | 0:20.65 | 38442 | 40006
23 | 8:53.32 | 0:18.24 | 40007 | 41380
24 | 9:11.56 | 0:34.18 | 41381 | 43948
25 | 9:45.74 | 0:22.17 | 43949 | 45615
26 | 10:08.16 | 0:17.55 | 45616 | 46945
27 | 10:25.71 | 0:10.32 | 46946 | 47727
28 | 10:36.28 | 0:16.29 | 47728 | 48956
29 | 10:52.57 | 0:12.49 | 48957 | 49905
30 | 11:05.31 | 0:15.69 | 49906 | 51099
31 | 11:21.25 | 0:25.65 | 51100 | 53039
32 | 11:47.15 | 0:47.66 | 53040 | 56630
33 | 12:35.06 | 0:21.61 | 56631 | 58266
34 | 12:56.67 | 0:31.35 | 58267 | 60626
35 | 13:28.27 | 0:44.61 | 60627 | 63987
36 | 14:13.13 | 0:30.61 | 63988 | 66298
37 | 14:43.74 | 0:35.67 | 66299 | 68990
38 | 15:19.66 | 0:09.33 | 68991 | 69698
39 | 15:29.24 | 0:18.11 | 69699 | 71059
40 | 15:47.35 | 0:23.63 | 71060 | 72847
41 | 16:11.23 | 0:21.54 | 72848 | 74476
42 | 16:33.02 | 0:32.29 | 74477 | 76905
43 | 17:05.31 | 0:11.11 | 76906 | 77741
44 | 17:16.42 | 0:12.72 | 77742 | 78713
45 | 17:29.39 | 0:06.10 | 78714 | 79173
46 | 17:35.49 | 0:21.62 | 79174 | 80810
47 | 17:57.36 | 0:11.57 | 80811 | 81692
48 | 18:09.18 | 0:27.05 | 81693 | 83722
49 | 18:36.23 | 0:11.46 | 83723 | 84593
50 | 18:47.69 | 0:28.30 | 84594 | 86723
51 | 19:16.24 | 0:27.45 | 86724 | 88793
52 | 19:43.69 | 0:34.04 | 88794 | 91347
53 | 20:17.73 | 0:22.64 | 91348 | 93061
54 | 20:40.62 | 0:18.71 | 93062 | 94482
55 | 20:59.58 | 0:20.35 | 94483 | 96017
56 | 21:20.18 | 0:20.50 | 96018 | 97567
57 | 21:40.68 | 0:24.40 | 97568 | 99407
58 | 22:05.33 | 0:18.52 | 99408 | 100809
59 | 22:24.10 | 0:15.38 | 100810 | 101972
60 | 22:39.48 | 0:22.16 | 101973 | 103638
61 | 23:01.64 | 0:23.63 | 103639 | 105426
62 | 23:25.52 | 0:23.62 | 105427 | 107213
63 | 23:49.39 | 0:12.72 | 107214 | 108185
64 | 24:02.36 | 39:39.12 | 108186 | 286622
Track 1
Filename Z:\Musique Flac\médiathèque\Michel Doneda & Pierre-Olivier Boulant - Sopranino , Radio\01 Untitled.wav
Pre-gap length 0:00:02.00
Peak level 6.4 %
Extraction speed 0.8 X
Track quality 100.0 %
Test CRC 3B8C5C9E
Copy CRC 3B8C5C9E
Track not present in AccurateRip database
Copy OK
Track 2
Filename Z:\Musique Flac\médiathèque\Michel Doneda & Pierre-Olivier Boulant - Sopranino , Radio\02 Untitled.wav
Peak level 6.9 %
Extraction speed 0.9 X
Track quality 100.0 %
Test CRC CCDAB65A
Copy CRC CCDAB65A
Track not present in AccurateRip database
Copy OK
Track 3
Filename Z:\Musique Flac\médiathèque\Michel Doneda & Pierre-Olivier Boulant - Sopranino , Radio\03 Untitled.wav
Peak level 13.2 %
Extraction speed 1.1 X
Track quality 100.0 %
Test CRC 18762252
Copy CRC 18762252
Track not present in AccurateRip database
Copy OK
Track 4
Filename Z:\Musique Flac\médiathèque\Michel Doneda & Pierre-Olivier Boulant - Sopranino , Radio\04 Untitled.wav
Peak level 17.4 %
Extraction speed 0.4 X
Track quality 99.2 %
Test CRC 5BF5FAF7
Copy CRC 5BF5FAF7
Track not present in AccurateRip database
Copy OK
Track 5
Filename Z:\Musique Flac\médiathèque\Michel Doneda & Pierre-Olivier Boulant - Sopranino , Radio\05 Untitled.wav
Peak level 8.3 %
Extraction speed 0.9 X
Track quality 100.0 %
Test CRC 620BB474
Copy CRC 620BB474
Track not present in AccurateRip database
Copy OK
Track 6
Filename Z:\Musique Flac\médiathèque\Michel Doneda & Pierre-Olivier Boulant - Sopranino , Radio\06 Untitled.wav
Peak level 11.9 %
Extraction speed 1.5 X
Track quality 100.0 %
Test CRC C5181D2F
Copy CRC C5181D2F
Track not present in AccurateRip database
Copy OK
Track 7
Filename Z:\Musique Flac\médiathèque\Michel Doneda & Pierre-Olivier Boulant - Sopranino , Radio\07 Untitled.wav
Peak level 7.7 %
Extraction speed 1.2 X
Track quality 100.0 %
Test CRC 88F1C64F
Copy CRC 88F1C64F
Track not present in AccurateRip database
Copy OK
Track 8
Filename Z:\Musique Flac\médiathèque\Michel Doneda & Pierre-Olivier Boulant - Sopranino , Radio\08 Untitled.wav
Peak level 22.3 %
Extraction speed 1.4 X
Track quality 100.0 %
Test CRC 18D50DD8
Copy CRC 18D50DD8
Track not present in AccurateRip database
Copy OK
Track 9
Filename Z:\Musique Flac\médiathèque\Michel Doneda & Pierre-Olivier Boulant - Sopranino , Radio\09 Untitled.wav
Peak level 12.8 %
Extraction speed 1.3 X
Track quality 100.0 %
Test CRC 33093AFE
Copy CRC 33093AFE
Track not present in AccurateRip database
Copy OK
Track 10
Filename Z:\Musique Flac\médiathèque\Michel Doneda & Pierre-Olivier Boulant - Sopranino , Radio\10 Untitled.wav
Peak level 6.1 %
Extraction speed 1.5 X
Track quality 100.0 %
Test CRC B92307F1
Copy CRC B92307F1
Track not present in AccurateRip database
Copy OK
Track 11
Filename Z:\Musique Flac\médiathèque\Michel Doneda & Pierre-Olivier Boulant - Sopranino , Radio\11 Untitled.wav
Peak level 5.9 %
Extraction speed 1.2 X
Track quality 100.0 %
Test CRC 3FB848DB
Copy CRC 3FB848DB
Track not present in AccurateRip database
Copy OK
Track 12
Filename Z:\Musique Flac\médiathèque\Michel Doneda & Pierre-Olivier Boulant - Sopranino , Radio\12 Untitled.wav
Peak level 8.2 %
Extraction speed 1.1 X
Track quality 100.0 %
Test CRC 47B06512
Copy CRC 47B06512
Track not present in AccurateRip database
Copy OK
Track 13
Filename Z:\Musique Flac\médiathèque\Michel Doneda & Pierre-Olivier Boulant - Sopranino , Radio\13 Untitled.wav
Peak level 11.3 %
Extraction speed 1.3 X
Track quality 100.0 %
Test CRC 97F328FD
Copy CRC 97F328FD
Track not present in AccurateRip database
Copy OK
Track 14
Filename Z:\Musique Flac\médiathèque\Michel Doneda & Pierre-Olivier Boulant - Sopranino , Radio\14 Untitled.wav
Peak level 11.0 %
Extraction speed 1.2 X
Track quality 100.0 %
Test CRC 3982CDA8
Copy CRC 3982CDA8
Track not present in AccurateRip database
Copy OK
Track 15
Filename Z:\Musique Flac\médiathèque\Michel Doneda & Pierre-Olivier Boulant - Sopranino , Radio\15 Untitled.wav
Peak level 5.4 %
Extraction speed 1.5 X
Track quality 100.0 %
Test CRC C3BFBECC
Copy CRC C3BFBECC
Track not present in AccurateRip database
Copy OK
Track 16
Filename Z:\Musique Flac\médiathèque\Michel Doneda & Pierre-Olivier Boulant - Sopranino , Radio\16 Untitled.wav
Peak level 15.4 %
Extraction speed 1.4 X
Track quality 100.0 %
Test CRC 4819EF0A
Copy CRC 4819EF0A
Track not present in AccurateRip database
Copy OK
Track 17
Filename Z:\Musique Flac\médiathèque\Michel Doneda & Pierre-Olivier Boulant - Sopranino , Radio\17 Untitled.wav
Peak level 10.8 %
Extraction speed 1.3 X
Track quality 100.0 %
Test CRC 42DC483A
Copy CRC 42DC483A
Track not present in AccurateRip database
Copy OK
Track 18
Filename Z:\Musique Flac\médiathèque\Michel Doneda & Pierre-Olivier Boulant - Sopranino , Radio\18 Untitled.wav
Peak level 22.2 %
Extraction speed 1.0 X
Track quality 100.0 %
Test CRC E0B6A1D5
Copy CRC E0B6A1D5
Track not present in AccurateRip database
Copy OK
Track 19
Filename Z:\Musique Flac\médiathèque\Michel Doneda & Pierre-Olivier Boulant - Sopranino , Radio\19 Untitled.wav
Peak level 8.7 %
Extraction speed 1.3 X
Track quality 100.0 %
Test CRC E291DA52
Copy CRC E291DA52
Track not present in AccurateRip database
Copy OK
Track 20
Filename Z:\Musique Flac\médiathèque\Michel Doneda & Pierre-Olivier Boulant - Sopranino , Radio\20 Untitled.wav
Peak level 10.9 %
Extraction speed 1.3 X
Track quality 100.0 %
Test CRC 9038F3FE
Copy CRC 9038F3FE
Track not present in AccurateRip database
Copy OK
Track 21
Filename Z:\Musique Flac\médiathèque\Michel Doneda & Pierre-Olivier Boulant - Sopranino , Radio\21 Untitled.wav
Peak level 20.5 %
Extraction speed 1.5 X
Track quality 100.0 %
Test CRC DB3BAC7F
Copy CRC DB3BAC7F
Track not present in AccurateRip database
Copy OK
Track 22
Filename Z:\Musique Flac\médiathèque\Michel Doneda & Pierre-Olivier Boulant - Sopranino , Radio\22 Untitled.wav
Peak level 69.5 %
Extraction speed 0.6 X
Track quality 99.4 %
Test CRC BA92B878
Copy CRC BA92B878
Track not present in AccurateRip database
Copy OK
Track 23
Filename Z:\Musique Flac\médiathèque\Michel Doneda & Pierre-Olivier Boulant - Sopranino , Radio\23 Untitled.wav
Peak level 21.1 %
Extraction speed 1.1 X
Track quality 100.0 %
Test CRC DD536320
Copy CRC DD536320
Track not present in AccurateRip database
Copy OK
Track 24
Filename Z:\Musique Flac\médiathèque\Michel Doneda & Pierre-Olivier Boulant - Sopranino , Radio\24 Untitled.wav
Peak level 32.6 %
Extraction speed 1.7 X
Track quality 100.0 %
Test CRC 3698D89B
Copy CRC 3698D89B
Track not present in AccurateRip database
Copy OK
Track 25
Filename Z:\Musique Flac\médiathèque\Michel Doneda & Pierre-Olivier Boulant - Sopranino , Radio\25 Untitled.wav
Peak level 22.0 %
Extraction speed 0.6 X
Track quality 99.5 %
Test CRC DB431252
Copy CRC DB431252
Track not present in AccurateRip database
Copy OK
Track 26
Filename Z:\Musique Flac\médiathèque\Michel Doneda & Pierre-Olivier Boulant - Sopranino , Radio\26 Untitled.wav
Peak level 12.3 %
Extraction speed 1.1 X
Track quality 100.0 %
Test CRC 62AA4E7B
Copy CRC 62AA4E7B
Track not present in AccurateRip database
Copy OK
Track 27
Filename Z:\Musique Flac\médiathèque\Michel Doneda & Pierre-Olivier Boulant - Sopranino , Radio\27 Untitled.wav
Peak level 16.9 %
Extraction speed 0.7 X
Track quality 100.0 %
Test CRC 8125B432
Copy CRC 8125B432
Track not present in AccurateRip database
Copy OK
Track 28
Filename Z:\Musique Flac\médiathèque\Michel Doneda & Pierre-Olivier Boulant - Sopranino , Radio\28 Untitled.wav
Peak level 90.6 %
Extraction speed 1.1 X
Track quality 100.0 %
Test CRC 95E26297
Copy CRC 95E26297
Track not present in AccurateRip database
Copy OK
Track 29
Filename Z:\Musique Flac\médiathèque\Michel Doneda & Pierre-Olivier Boulant - Sopranino , Radio\29 Untitled.wav
Peak level 53.3 %
Extraction speed 0.8 X
Track quality 100.0 %
Test CRC 9829EA3D
Copy CRC 9829EA3D
Track not present in AccurateRip database
Copy OK
Track 30
Filename Z:\Musique Flac\médiathèque\Michel Doneda & Pierre-Olivier Boulant - Sopranino , Radio\30 Untitled.wav
Peak level 11.5 %
Extraction speed 0.5 X
Track quality 99.3 %
Test CRC 0CA0F099
Copy CRC 0CA0F099
Track not present in AccurateRip database
Copy OK
Track 31
Filename Z:\Musique Flac\médiathèque\Michel Doneda & Pierre-Olivier Boulant - Sopranino , Radio\31 Untitled.wav
Peak level 11.1 %
Extraction speed 0.8 X
Track quality 99.5 %
Test CRC E7C308ED
Copy CRC E7C308ED
Track not present in AccurateRip database
Copy OK
Track 32
Filename Z:\Musique Flac\médiathèque\Michel Doneda & Pierre-Olivier Boulant - Sopranino , Radio\32 Untitled.wav
Peak level 10.7 %
Extraction speed 2.1 X
Track quality 100.0 %
Test CRC 38924585
Copy CRC 38924585
Track not present in AccurateRip database
Copy OK
Track 33
Filename Z:\Musique Flac\médiathèque\Michel Doneda & Pierre-Olivier Boulant - Sopranino , Radio\33 Untitled.wav
Peak level 5.7 %
Extraction speed 1.3 X
Track quality 100.0 %
Test CRC 2B8CCB5B
Copy CRC 2B8CCB5B
Track not present in AccurateRip database
Copy OK
Track 34
Filename Z:\Musique Flac\médiathèque\Michel Doneda & Pierre-Olivier Boulant - Sopranino , Radio\34 Untitled.wav
Peak level 5.1 %
Extraction speed 1.7 X
Track quality 100.0 %
Test CRC FE9ACDF2
Copy CRC FE9ACDF2
Track not present in AccurateRip database
Copy OK
Track 35
Filename Z:\Musique Flac\médiathèque\Michel Doneda & Pierre-Olivier Boulant - Sopranino , Radio\35 Untitled.wav
Peak level 6.5 %
Extraction speed 1.2 X
Track quality 99.7 %
Test CRC 75BC81A8
Copy CRC 75BC81A8
Track not present in AccurateRip database
Copy OK
Track 36
Filename Z:\Musique Flac\médiathèque\Michel Doneda & Pierre-Olivier Boulant - Sopranino , Radio\36 Untitled.wav
Peak level 12.9 %
Extraction speed 1.7 X
Track quality 100.0 %
Test CRC F9BAD32D
Copy CRC F9BAD32D
Track not present in AccurateRip database
Copy OK
Track 37
Filename Z:\Musique Flac\médiathèque\Michel Doneda & Pierre-Olivier Boulant - Sopranino , Radio\37 Untitled.wav
Peak level 3.0 %
Extraction speed 1.9 X
Track quality 100.0 %
Test CRC 62EFB27A
Copy CRC 62EFB27A
Track not present in AccurateRip database
Copy OK
Track 38
Filename Z:\Musique Flac\médiathèque\Michel Doneda & Pierre-Olivier Boulant - Sopranino , Radio\38 Untitled.wav
Peak level 7.2 %
Extraction speed 0.7 X
Track quality 100.0 %
Test CRC F8BBEE0F
Copy CRC F8BBEE0F
Track not present in AccurateRip database
Copy OK
Track 39
Filename Z:\Musique Flac\médiathèque\Michel Doneda & Pierre-Olivier Boulant - Sopranino , Radio\39 Untitled.wav
Peak level 12.4 %
Extraction speed 1.2 X
Track quality 100.0 %
Test CRC B16D3A8A
Copy CRC B16D3A8A
Track not present in AccurateRip database
Copy OK
Track 40
Filename Z:\Musique Flac\médiathèque\Michel Doneda & Pierre-Olivier Boulant - Sopranino , Radio\40 Untitled.wav
Peak level 10.7 %
Extraction speed 1.5 X
Track quality 100.0 %
Test CRC E3E6029B
Copy CRC E3E6029B
Track not present in AccurateRip database
Copy OK
Track 41
Filename Z:\Musique Flac\médiathèque\Michel Doneda & Pierre-Olivier Boulant - Sopranino , Radio\41 Untitled.wav
Peak level 44.2 %
Extraction speed 1.4 X
Track quality 100.0 %
Test CRC 4E165993
Copy CRC 4E165993
Track not present in AccurateRip database
Copy OK
Track 42
Filename Z:\Musique Flac\médiathèque\Michel Doneda & Pierre-Olivier Boulant - Sopranino , Radio\42 Untitled.wav
Peak level 59.3 %
Extraction speed 1.9 X
Track quality 100.0 %
Test CRC E1A88338
Copy CRC E1A88338
Track not present in AccurateRip database
Copy OK
Track 43
Filename Z:\Musique Flac\médiathèque\Michel Doneda & Pierre-Olivier Boulant - Sopranino , Radio\43 Untitled.wav
Peak level 96.8 %
Extraction speed 0.4 X
Track quality 100.0 %
Test CRC 7A68176E
Copy CRC 7A68176E
Track not present in AccurateRip database
Copy OK
Track 44
Filename Z:\Musique Flac\médiathèque\Michel Doneda & Pierre-Olivier Boulant - Sopranino , Radio\44 Untitled.wav
Peak level 27.5 %
Extraction speed 0.4 X
Track quality 99.1 %
Test CRC 5354D5ED
Copy CRC 5354D5ED
Track not present in AccurateRip database
Copy OK
Track 45
Filename Z:\Musique Flac\médiathèque\Michel Doneda & Pierre-Olivier Boulant - Sopranino , Radio\45 Untitled.wav
Peak level 77.7 %
Extraction speed 0.4 X
Track quality 100.0 %
Test CRC 46D2AD1F
Copy CRC 46D2AD1F
Track not present in AccurateRip database
Copy OK
Track 46
Filename Z:\Musique Flac\médiathèque\Michel Doneda & Pierre-Olivier Boulant - Sopranino , Radio\46 Untitled.wav
Peak level 26.1 %
Extraction speed 1.3 X
Track quality 100.0 %
Test CRC 55938AA2
Copy CRC 55938AA2
Track not present in AccurateRip database
Copy OK
Track 47
Filename Z:\Musique Flac\médiathèque\Michel Doneda & Pierre-Olivier Boulant - Sopranino , Radio\47 Untitled.wav
Peak level 22.9 %
Extraction speed 0.9 X
Track quality 100.0 %
Test CRC 83A995A4
Copy CRC 83A995A4
Track not present in AccurateRip database
Copy OK
Track 48
Filename Z:\Musique Flac\médiathèque\Michel Doneda & Pierre-Olivier Boulant - Sopranino , Radio\48 Untitled.wav
Peak level 9.8 %
Extraction speed 1.7 X
Track quality 100.0 %
Test CRC 10CB4A10
Copy CRC 10CB4A10
Track not present in AccurateRip database
Copy OK
Track 49
Filename Z:\Musique Flac\médiathèque\Michel Doneda & Pierre-Olivier Boulant - Sopranino , Radio\49 Untitled.wav
Peak level 1.9 %
Extraction speed 0.4 X
Track quality 99.0 %
Test CRC 2A26560D
Copy CRC 2A26560D
Track not present in AccurateRip database
Copy OK
Track 50
Filename Z:\Musique Flac\médiathèque\Michel Doneda & Pierre-Olivier Boulant - Sopranino , Radio\50 Untitled.wav
Peak level 6.8 %
Extraction speed 1.7 X
Track quality 100.0 %
Test CRC BB2BA3BC
Copy CRC BB2BA3BC
Track not present in AccurateRip database
Copy OK
Track 51
Filename Z:\Musique Flac\médiathèque\Michel Doneda & Pierre-Olivier Boulant - Sopranino , Radio\51 Untitled.wav
Peak level 11.4 %
Extraction speed 1.8 X
Track quality 100.0 %
Test CRC 13DEE2E4
Copy CRC 13DEE2E4
Track not present in AccurateRip database
Copy OK
Track 52
Filename Z:\Musique Flac\médiathèque\Michel Doneda & Pierre-Olivier Boulant - Sopranino , Radio\52 Untitled.wav
Peak level 2.7 %
Extraction speed 1.9 X
Track quality 100.0 %
Test CRC 8F4F1594
Copy CRC 8F4F1594
Track not present in AccurateRip database
Copy OK
Track 53
Filename Z:\Musique Flac\médiathèque\Michel Doneda & Pierre-Olivier Boulant - Sopranino , Radio\53 Untitled.wav
Peak level 4.1 %
Extraction speed 1.5 X
Track quality 100.0 %
Test CRC 9E6DBAC8
Copy CRC 9E6DBAC8
Track not present in AccurateRip database
Copy OK
Track 54
Filename Z:\Musique Flac\médiathèque\Michel Doneda & Pierre-Olivier Boulant - Sopranino , Radio\54 Untitled.wav
Peak level 12.6 %
Extraction speed 0.7 X
Track quality 99.4 %
Test CRC 893B0DA6
Copy CRC 893B0DA6
Track not present in AccurateRip database
Copy OK
Track 55
Filename Z:\Musique Flac\médiathèque\Michel Doneda & Pierre-Olivier Boulant - Sopranino , Radio\55 Untitled.wav
Peak level 10.3 %
Extraction speed 1.4 X
Track quality 100.0 %
Test CRC E952219F
Copy CRC E952219F
Track not present in AccurateRip database
Copy OK
Track 56
Filename Z:\Musique Flac\médiathèque\Michel Doneda & Pierre-Olivier Boulant - Sopranino , Radio\56 Untitled.wav
Peak level 5.2 %
Extraction speed 1.5 X
Track quality 100.0 %
Test CRC F452A27F
Copy CRC F452A27F
Track not present in AccurateRip database
Copy OK
Track 57
Filename Z:\Musique Flac\médiathèque\Michel Doneda & Pierre-Olivier Boulant - Sopranino , Radio\57 Untitled.wav
Peak level 26.4 %
Extraction speed 0.8 X
Track quality 99.5 %
Test CRC B16C98AA
Copy CRC B16C98AA
Track not present in AccurateRip database
Copy OK
Track 58
Filename Z:\Musique Flac\médiathèque\Michel Doneda & Pierre-Olivier Boulant - Sopranino , Radio\58 Untitled.wav
Peak level 9.4 %
Extraction speed 1.4 X
Track quality 100.0 %
Test CRC 0150DB1B
Copy CRC 0150DB1B
Track not present in AccurateRip database
Copy OK
Track 59
Filename Z:\Musique Flac\médiathèque\Michel Doneda & Pierre-Olivier Boulant - Sopranino , Radio\59 Untitled.wav
Peak level 4.8 %
Extraction speed 1.2 X
Track quality 100.0 %
Test CRC A1E2E534
Copy CRC A1E2E534
Track not present in AccurateRip database
Copy OK
Track 60
Filename Z:\Musique Flac\médiathèque\Michel Doneda & Pierre-Olivier Boulant - Sopranino , Radio\60 Untitled.wav
Peak level 13.1 %
Extraction speed 0.8 X
Track quality 99.5 %
Test CRC EF57006B
Copy CRC EF57006B
Track not present in AccurateRip database
Copy OK
Track 61
Filename Z:\Musique Flac\médiathèque\Michel Doneda & Pierre-Olivier Boulant - Sopranino , Radio\61 Untitled.wav
Peak level 44.6 %
Extraction speed 1.6 X
Track quality 100.0 %
Test CRC 9EC17CE9
Copy CRC 9EC17CE9
Track not present in AccurateRip database
Copy OK
Track 62
Filename Z:\Musique Flac\médiathèque\Michel Doneda & Pierre-Olivier Boulant - Sopranino , Radio\62 Untitled.wav
Peak level 47.4 %
Extraction speed 1.7 X
Track quality 100.0 %
Test CRC 3AEFF8A9
Copy CRC 3AEFF8A9
Track not present in AccurateRip database
Copy OK
Track 63
Filename Z:\Musique Flac\médiathèque\Michel Doneda & Pierre-Olivier Boulant - Sopranino , Radio\63 Untitled.wav
Peak level 10.6 %
Extraction speed 0.5 X
Track quality 99.1 %
Test CRC 6B2487E7
Copy CRC 6B2487E7
Track not present in AccurateRip database
Copy OK
Track 64
Filename Z:\Musique Flac\médiathèque\Michel Doneda & Pierre-Olivier Boulant - Sopranino , Radio\64 Untitled.wav
Peak level 94.0 %
Extraction speed 5.3 X
Track quality 100.0 %
Test CRC 32980977
Copy CRC 32980977
Track not present in AccurateRip database
Copy OK
None of the tracks are present in the AccurateRip database
No errors occurred
End of status report
==== Log checksum 75CA37CBAD5C955502F90A5EB2FCB20C9F7C825096EBCDD95C9593B8F45D4666 ====
 
Содержание индексной карты (.CUE)
REM GENRE Electronic
REM DATE 2003
REM DISCID 380EED40
REM COMMENT "ExactAudioCopy v1.0b3"
PERFORMER "Michel Doneda & Pierre-Olivier Boulant"
TITLE "Sopranino / Radio"
FILE "01 Untitled.wav" WAVE
TRACK 01 AUDIO
TITLE "Untitled"
PERFORMER "Michel Doneda & Pierre-Olivier Boulant"
FLAGS DCP
INDEX 01 00:00:00
FILE "02 Untitled.wav" WAVE
TRACK 02 AUDIO
TITLE "Untitled"
PERFORMER "Michel Doneda & Pierre-Olivier Boulant"
FLAGS DCP
INDEX 01 00:00:00
FILE "03 Untitled.wav" WAVE
TRACK 03 AUDIO
TITLE "Untitled"
PERFORMER "Michel Doneda & Pierre-Olivier Boulant"
FLAGS DCP
INDEX 01 00:00:00
FILE "04 Untitled.wav" WAVE
TRACK 04 AUDIO
TITLE "Untitled"
PERFORMER "Michel Doneda & Pierre-Olivier Boulant"
FLAGS DCP
INDEX 01 00:00:00
FILE "05 Untitled.wav" WAVE
TRACK 05 AUDIO
TITLE "Untitled"
PERFORMER "Michel Doneda & Pierre-Olivier Boulant"
FLAGS DCP
INDEX 01 00:00:00
FILE "06 Untitled.wav" WAVE
TRACK 06 AUDIO
TITLE "Untitled"
PERFORMER "Michel Doneda & Pierre-Olivier Boulant"
FLAGS DCP
INDEX 01 00:00:00
FILE "07 Untitled.wav" WAVE
TRACK 07 AUDIO
TITLE "Untitled"
PERFORMER "Michel Doneda & Pierre-Olivier Boulant"
FLAGS DCP
INDEX 01 00:00:00
FILE "08 Untitled.wav" WAVE
TRACK 08 AUDIO
TITLE "Untitled"
PERFORMER "Michel Doneda & Pierre-Olivier Boulant"
FLAGS DCP
INDEX 01 00:00:00
FILE "09 Untitled.wav" WAVE
TRACK 09 AUDIO
TITLE "Untitled"
PERFORMER "Michel Doneda & Pierre-Olivier Boulant"
FLAGS DCP
INDEX 01 00:00:00
FILE "10 Untitled.wav" WAVE
TRACK 10 AUDIO
TITLE "Untitled"
PERFORMER "Michel Doneda & Pierre-Olivier Boulant"
FLAGS DCP
INDEX 01 00:00:00
FILE "11 Untitled.wav" WAVE
TRACK 11 AUDIO
TITLE "Untitled"
PERFORMER "Michel Doneda & Pierre-Olivier Boulant"
FLAGS DCP
INDEX 01 00:00:00
FILE "12 Untitled.wav" WAVE
TRACK 12 AUDIO
TITLE "Untitled"
PERFORMER "Michel Doneda & Pierre-Olivier Boulant"
FLAGS DCP
INDEX 01 00:00:00
FILE "13 Untitled.wav" WAVE
TRACK 13 AUDIO
TITLE "Untitled"
PERFORMER "Michel Doneda & Pierre-Olivier Boulant"
FLAGS DCP
INDEX 01 00:00:00
FILE "14 Untitled.wav" WAVE
TRACK 14 AUDIO
TITLE "Untitled"
PERFORMER "Michel Doneda & Pierre-Olivier Boulant"
FLAGS DCP
INDEX 01 00:00:00
FILE "15 Untitled.wav" WAVE
TRACK 15 AUDIO
TITLE "Untitled"
PERFORMER "Michel Doneda & Pierre-Olivier Boulant"
FLAGS DCP
INDEX 01 00:00:00
FILE "16 Untitled.wav" WAVE
TRACK 16 AUDIO
TITLE "Untitled"
PERFORMER "Michel Doneda & Pierre-Olivier Boulant"
FLAGS DCP
INDEX 01 00:00:00
FILE "17 Untitled.wav" WAVE
TRACK 17 AUDIO
TITLE "Untitled"
PERFORMER "Michel Doneda & Pierre-Olivier Boulant"
FLAGS DCP
INDEX 01 00:00:00
FILE "18 Untitled.wav" WAVE
TRACK 18 AUDIO
TITLE "Untitled"
PERFORMER "Michel Doneda & Pierre-Olivier Boulant"
FLAGS DCP
INDEX 01 00:00:00
FILE "19 Untitled.wav" WAVE
TRACK 19 AUDIO
TITLE "Untitled"
PERFORMER "Michel Doneda & Pierre-Olivier Boulant"
FLAGS DCP
INDEX 01 00:00:00
FILE "20 Untitled.wav" WAVE
TRACK 20 AUDIO
TITLE "Untitled"
PERFORMER "Michel Doneda & Pierre-Olivier Boulant"
FLAGS DCP
INDEX 01 00:00:00
FILE "21 Untitled.wav" WAVE
TRACK 21 AUDIO
TITLE "Untitled"
PERFORMER "Michel Doneda & Pierre-Olivier Boulant"
FLAGS DCP
INDEX 01 00:00:00
FILE "22 Untitled.wav" WAVE
TRACK 22 AUDIO
TITLE "Untitled"
PERFORMER "Michel Doneda & Pierre-Olivier Boulant"
FLAGS DCP
INDEX 01 00:00:00
FILE "23 Untitled.wav" WAVE
TRACK 23 AUDIO
TITLE "Untitled"
PERFORMER "Michel Doneda & Pierre-Olivier Boulant"
FLAGS DCP
INDEX 01 00:00:00
FILE "24 Untitled.wav" WAVE
TRACK 24 AUDIO
TITLE "Untitled"
PERFORMER "Michel Doneda & Pierre-Olivier Boulant"
FLAGS DCP
INDEX 01 00:00:00
FILE "25 Untitled.wav" WAVE
TRACK 25 AUDIO
TITLE "Untitled"
PERFORMER "Michel Doneda & Pierre-Olivier Boulant"
FLAGS DCP
INDEX 01 00:00:00
FILE "26 Untitled.wav" WAVE
TRACK 26 AUDIO
TITLE "Untitled"
PERFORMER "Michel Doneda & Pierre-Olivier Boulant"
FLAGS DCP
INDEX 01 00:00:00
FILE "27 Untitled.wav" WAVE
TRACK 27 AUDIO
TITLE "Untitled"
PERFORMER "Michel Doneda & Pierre-Olivier Boulant"
FLAGS DCP
INDEX 01 00:00:00
FILE "28 Untitled.wav" WAVE
TRACK 28 AUDIO
TITLE "Untitled"
PERFORMER "Michel Doneda & Pierre-Olivier Boulant"
FLAGS DCP
INDEX 01 00:00:00
FILE "29 Untitled.wav" WAVE
TRACK 29 AUDIO
TITLE "Untitled"
PERFORMER "Michel Doneda & Pierre-Olivier Boulant"
FLAGS DCP
INDEX 01 00:00:00
FILE "30 Untitled.wav" WAVE
TRACK 30 AUDIO
TITLE "Untitled"
PERFORMER "Michel Doneda & Pierre-Olivier Boulant"
FLAGS DCP
INDEX 01 00:00:00
FILE "31 Untitled.wav" WAVE
TRACK 31 AUDIO
TITLE "Untitled"
PERFORMER "Michel Doneda & Pierre-Olivier Boulant"
FLAGS DCP
INDEX 01 00:00:00
FILE "32 Untitled.wav" WAVE
TRACK 32 AUDIO
TITLE "Untitled"
PERFORMER "Michel Doneda & Pierre-Olivier Boulant"
FLAGS DCP
INDEX 01 00:00:00
FILE "33 Untitled.wav" WAVE
TRACK 33 AUDIO
TITLE "Untitled"
PERFORMER "Michel Doneda & Pierre-Olivier Boulant"
FLAGS DCP
INDEX 01 00:00:00
FILE "34 Untitled.wav" WAVE
TRACK 34 AUDIO
TITLE "Untitled"
PERFORMER "Michel Doneda & Pierre-Olivier Boulant"
FLAGS DCP
INDEX 01 00:00:00
FILE "35 Untitled.wav" WAVE
TRACK 35 AUDIO
TITLE "Untitled"
PERFORMER "Michel Doneda & Pierre-Olivier Boulant"
FLAGS DCP
INDEX 01 00:00:00
FILE "36 Untitled.wav" WAVE
TRACK 36 AUDIO
TITLE "Untitled"
PERFORMER "Michel Doneda & Pierre-Olivier Boulant"
FLAGS DCP
INDEX 01 00:00:00
FILE "37 Untitled.wav" WAVE
TRACK 37 AUDIO
TITLE "Untitled"
PERFORMER "Michel Doneda & Pierre-Olivier Boulant"
FLAGS DCP
INDEX 01 00:00:00
FILE "38 Untitled.wav" WAVE
TRACK 38 AUDIO
TITLE "Untitled"
PERFORMER "Michel Doneda & Pierre-Olivier Boulant"
FLAGS DCP
INDEX 01 00:00:00
FILE "39 Untitled.wav" WAVE
TRACK 39 AUDIO
TITLE "Untitled"
PERFORMER "Michel Doneda & Pierre-Olivier Boulant"
FLAGS DCP
INDEX 01 00:00:00
FILE "40 Untitled.wav" WAVE
TRACK 40 AUDIO
TITLE "Untitled"
PERFORMER "Michel Doneda & Pierre-Olivier Boulant"
FLAGS DCP
INDEX 01 00:00:00
FILE "41 Untitled.wav" WAVE
TRACK 41 AUDIO
TITLE "Untitled"
PERFORMER "Michel Doneda & Pierre-Olivier Boulant"
FLAGS DCP
INDEX 01 00:00:00
FILE "42 Untitled.wav" WAVE
TRACK 42 AUDIO
TITLE "Untitled"
PERFORMER "Michel Doneda & Pierre-Olivier Boulant"
FLAGS DCP
INDEX 01 00:00:00
FILE "43 Untitled.wav" WAVE
TRACK 43 AUDIO
TITLE "Untitled"
PERFORMER "Michel Doneda & Pierre-Olivier Boulant"
FLAGS DCP
INDEX 01 00:00:00
FILE "44 Untitled.wav" WAVE
TRACK 44 AUDIO
TITLE "Untitled"
PERFORMER "Michel Doneda & Pierre-Olivier Boulant"
FLAGS DCP
INDEX 01 00:00:00
FILE "45 Untitled.wav" WAVE
TRACK 45 AUDIO
TITLE "Untitled"
PERFORMER "Michel Doneda & Pierre-Olivier Boulant"
FLAGS DCP
INDEX 01 00:00:00
FILE "46 Untitled.wav" WAVE
TRACK 46 AUDIO
TITLE "Untitled"
PERFORMER "Michel Doneda & Pierre-Olivier Boulant"
FLAGS DCP
INDEX 01 00:00:00
FILE "47 Untitled.wav" WAVE
TRACK 47 AUDIO
TITLE "Untitled"
PERFORMER "Michel Doneda & Pierre-Olivier Boulant"
FLAGS DCP
INDEX 01 00:00:00
FILE "48 Untitled.wav" WAVE
TRACK 48 AUDIO
TITLE "Untitled"
PERFORMER "Michel Doneda & Pierre-Olivier Boulant"
FLAGS DCP
INDEX 01 00:00:00
FILE "49 Untitled.wav" WAVE
TRACK 49 AUDIO
TITLE "Untitled"
PERFORMER "Michel Doneda & Pierre-Olivier Boulant"
FLAGS DCP
INDEX 01 00:00:00
FILE "50 Untitled.wav" WAVE
TRACK 50 AUDIO
TITLE "Untitled"
PERFORMER "Michel Doneda & Pierre-Olivier Boulant"
FLAGS DCP
INDEX 01 00:00:00
FILE "51 Untitled.wav" WAVE
TRACK 51 AUDIO
TITLE "Untitled"
PERFORMER "Michel Doneda & Pierre-Olivier Boulant"
FLAGS DCP
INDEX 01 00:00:00
FILE "52 Untitled.wav" WAVE
TRACK 52 AUDIO
TITLE "Untitled"
PERFORMER "Michel Doneda & Pierre-Olivier Boulant"
FLAGS DCP
INDEX 01 00:00:00
FILE "53 Untitled.wav" WAVE
TRACK 53 AUDIO
TITLE "Untitled"
PERFORMER "Michel Doneda & Pierre-Olivier Boulant"
FLAGS DCP
INDEX 01 00:00:00
FILE "54 Untitled.wav" WAVE
TRACK 54 AUDIO
TITLE "Untitled"
PERFORMER "Michel Doneda & Pierre-Olivier Boulant"
FLAGS DCP
INDEX 01 00:00:00
FILE "55 Untitled.wav" WAVE
TRACK 55 AUDIO
TITLE "Untitled"
PERFORMER "Michel Doneda & Pierre-Olivier Boulant"
FLAGS DCP
INDEX 01 00:00:00
FILE "56 Untitled.wav" WAVE
TRACK 56 AUDIO
TITLE "Untitled"
PERFORMER "Michel Doneda & Pierre-Olivier Boulant"
FLAGS DCP
INDEX 01 00:00:00
FILE "57 Untitled.wav" WAVE
TRACK 57 AUDIO
TITLE "Untitled"
PERFORMER "Michel Doneda & Pierre-Olivier Boulant"
FLAGS DCP
INDEX 01 00:00:00
FILE "58 Untitled.wav" WAVE
TRACK 58 AUDIO
TITLE "Untitled"
PERFORMER "Michel Doneda & Pierre-Olivier Boulant"
FLAGS DCP
INDEX 01 00:00:00
FILE "59 Untitled.wav" WAVE
TRACK 59 AUDIO
TITLE "Untitled"
PERFORMER "Michel Doneda & Pierre-Olivier Boulant"
FLAGS DCP
INDEX 01 00:00:00
FILE "60 Untitled.wav" WAVE
TRACK 60 AUDIO
TITLE "Untitled"
PERFORMER "Michel Doneda & Pierre-Olivier Boulant"
FLAGS DCP
INDEX 01 00:00:00
FILE "61 Untitled.wav" WAVE
TRACK 61 AUDIO
TITLE "Untitled"
PERFORMER "Michel Doneda & Pierre-Olivier Boulant"
FLAGS DCP
INDEX 01 00:00:00
FILE "62 Untitled.wav" WAVE
TRACK 62 AUDIO
TITLE "Untitled"
PERFORMER "Michel Doneda & Pierre-Olivier Boulant"
FLAGS DCP
INDEX 01 00:00:00
FILE "63 Untitled.wav" WAVE
TRACK 63 AUDIO
TITLE "Untitled"
PERFORMER "Michel Doneda & Pierre-Olivier Boulant"
FLAGS DCP
INDEX 01 00:00:00
FILE "64 Untitled.wav" WAVE
TRACK 64 AUDIO
TITLE "Untitled"
PERFORMER "Michel Doneda & Pierre-Olivier Boulant"
FLAGS DCP
INDEX 01 00:00:00
INDEX 02 01:29:14
INDEX 03 02:07:32
INDEX 04 03:25:31
INDEX 05 04:09:17
INDEX 06 05:31:39
INDEX 07 06:47:05
INDEX 08 07:46:73
INDEX 09 08:11:65
INDEX 10 10:15:05
INDEX 11 11:42:72
INDEX 12 13:23:64
INDEX 13 13:45:22
INDEX 14 14:05:74
INDEX 15 16:20:66
INDEX 16 18:28:06
INDEX 17 19:30:67
INDEX 18 20:52:14
INDEX 19 21:43:33
INDEX 20 22:43:02
INDEX 21 23:22:67
INDEX 22 25:57:02
INDEX 23 26:44:04
INDEX 24 27:30:29
INDEX 25 30:17:60
INDEX 26 30:41:62
INDEX 27 32:07:39
INDEX 28 35:49:21
INDEX 29 37:47:22
INDEX 30 38:19:23
 
Лог проверки качества
AUDIOCHECKER v2.0 beta (build 457) - by Dester - opdester@freemail.hu
~~~~~~~~~~~~~~~~~~~~~~~~~~~~~~~~~~
-=== DO NOT EDIT THIS FILE! ===-
Path: ...\Michel Doneda & Pierre-Olivier Boulant - Sopranino , Radio
01 -=- 01 Untitled.flac -=- CDDA (62%)
02 -=- 02 Untitled.flac -=- MPEG (99%)
03 -=- 03 Untitled.flac -=- MPEG (100%)
04 -=- 04 Untitled.flac -=- CDDA (62%)
05 -=- 05 Untitled.flac -=- MPEG (97%)
06 -=- 06 Untitled.flac -=- MPEG (100%)
07 -=- 07 Untitled.flac -=- CDDA (92%)
08 -=- 08 Untitled.flac -=- CDDA (58%)
09 -=- 09 Untitled.flac -=- CDDA (76%)
10 -=- 10 Untitled.flac -=- MPEG (100%)
11 -=- 11 Untitled.flac -=- MPEG (100%)
12 -=- 12 Untitled.flac -=- MPEG (97%)
13 -=- 13 Untitled.flac -=- CDDA (100%)
14 -=- 14 Untitled.flac -=- CDDA (100%)
15 -=- 15 Untitled.flac -=- MPEG (91%)
16 -=- 16 Untitled.flac -=- MPEG (99%)
17 -=- 17 Untitled.flac -=- CDDA (100%)
18 -=- 18 Untitled.flac -=- CDDA (43%)
19 -=- 19 Untitled.flac -=- CDDA (100%)
20 -=- 20 Untitled.flac -=- MPEG (100%)
21 -=- 21 Untitled.flac -=- MPEG (93%)
22 -=- 22 Untitled.flac -=- CDDA (99%)
23 -=- 23 Untitled.flac -=- CDDA (49%)
24 -=- 24 Untitled.flac -=- CDDA (100%)
25 -=- 25 Untitled.flac -=- MPEG (90%)
26 -=- 26 Untitled.flac -=- CDDA (43%)
27 -=- 27 Untitled.flac -=- MPEG (93%)
28 -=- 28 Untitled.flac -=- CDDA (100%)
29 -=- 29 Untitled.flac -=- CDDA (100%)
30 -=- 30 Untitled.flac -=- MPEG (100%)
31 -=- 31 Untitled.flac -=- MPEG (100%)
32 -=- 32 Untitled.flac -=- MPEG (89%)
33 -=- 33 Untitled.flac -=- ERROR
34 -=- 34 Untitled.flac -=- CDDA (100%)
35 -=- 35 Untitled.flac -=- MPEG (91%)
36 -=- 36 Untitled.flac -=- CDDA (49%)
37 -=- 37 Untitled.flac -=- MPEG (90%)
38 -=- 38 Untitled.flac -=- CDDA (100%)
39 -=- 39 Untitled.flac -=- CDDA (86%)
40 -=- 40 Untitled.flac -=- MPEG (100%)
41 -=- 41 Untitled.flac -=- CDDA (100%)
42 -=- 42 Untitled.flac -=- MPEG (100%)
43 -=- 43 Untitled.flac -=- CDDA (100%)
44 -=- 44 Untitled.flac -=- CDDA (100%)
45 -=- 45 Untitled.flac -=- CDDA (100%)
46 -=- 46 Untitled.flac -=- CDDA (92%)
47 -=- 47 Untitled.flac -=- CDDA (100%)
48 -=- 48 Untitled.flac -=- CDDA (100%)
49 -=- 49 Untitled.flac -=- MPEG (100%)
50 -=- 50 Untitled.flac -=- MPEG (80%)
51 -=- 51 Untitled.flac -=- CDDA (100%)
52 -=- 52 Untitled.flac -=- MPEG (89%)
53 -=- 53 Untitled.flac -=- MPEG (100%)
54 -=- 54 Untitled.flac -=- MPEG (80%)
55 -=- 55 Untitled.flac -=- CDDA (86%)
56 -=- 56 Untitled.flac -=- MPEG (89%)
57 -=- 57 Untitled.flac -=- MPEG (100%)
58 -=- 58 Untitled.flac -=- MPEG (100%)
59 -=- 59 Untitled.flac -=- MPEG (90%)
60 -=- 60 Untitled.flac -=- MPEG (90%)
61 -=- 61 Untitled.flac -=- MPEG (100%)
62 -=- 62 Untitled.flac -=- CDDA (85%)
63 -=- 63 Untitled.flac -=- CDDA (100%)
64 -=- 64 Untitled.flac -=- CDDA (62%)
Summary 45,98% CDDA
259737156
 
Об альбоме (сборнике)
Авторы рекомендуют прослушивание альбома в произвольной последовательности.
 
Состав
Michel Doneda sopranino saxophone, radio (64)
Pierre-Olivier Boulant microphonography, radio (1~63)
Any questions -> support@pro-jazz.com. По всем вопросам пишите -> support@pro-jazz.com
23:16
128
Нет комментариев. Ваш будет первым!