Вы используете незарегистрированную версию компонента "Вкладки"!

Поиск

(Avant-Garde Jazz, Spoken Word, Contemporary) Paul Haines - Darn It! {Box Set,2CD} - 1993, FLAC (tracks+.cue), lossless

(Avant-Garde Jazz, Spoken Word, Contemporary) Paul Haines - Darn It! {Box Set,2CD} - 1993, FLAC (tracks+.cue), lossless
Треклист:
•Paul Haines - Darn It! {Box Set,2CD}•
Жанр: Avant-Garde Jazz, Spoken Word, Contemporary
Страна-производитель диска: USA
Год издания: 1993
Издатель (лейбл): American Clave
Номер по каталогу: AMСL 1014 2
Аудиокодек: FLAC (*.flac)
Тип рипа: tracks+.cue
Битрейт аудио: lossless
Продолжительность: 01:37:16
Источник (релизер): Рипы с дисков.
Наличие сканов в содержимом раздачи: да
 
CD1 - 00:46:54
Треклист:

01. Threats That Matter
02. Curtsy
03. What This Was Going To Suppose To Mean
04. Funnybird Song
05. Outside The City
06. Art In Heaven
07. Rawalpindi Blues
08. Sticks In The Mud
09. There Aren't These Things Questionable All Over
10. Les Paramedicaux Erotiques
11. Jubilee
12. On The Way To Elsewhere And Here
13. Inexplicably
14. Poem For Gretchen Ruth
 
Лог создания рипа
Exact Audio Copy V1.0 beta 3 from 29. August 2011
Отчёт EAC об извлечении, выполненном 19. марта 2012, 20:46
Paul Haines / Darn It! (CD1)
Дисковод: TSSTcorpCDDVDW SH-S223C Adapter: 5 ID: 0
Режим чтения : Достоверность
Использование точного потока : Да
Отключение кэша аудио : Да
Использование указателей C2 : Нет
Коррекция смещения при чтении : 697
Способность читать области Lead-in и Lead-out : Нет
Заполнение пропущенных сэмплов тишиной : Да
Удаление блоков с тишиной в начале и конце : Нет
При вычислениях CRC использовались нулевые сэмплы : Да
Интерфейс : Встроенный Win32-интерфейс для Win NT/2000
Обработка зазоров : Добавлено к предыдущему треку
Выходной формат : Пользовательский кодировщик
Выбранный битрейт : 128 kBit/s
Качество : Высокий
Добавление ID3-тега : Нет
Утилита сжатия : C:\Program Files\Exact Audio Copy\Flac\flac.exe
Дополнительные параметры : -V -8 -T "Genre=%genre%" -T "Artist=%artist%" -T "Title=%title%" -T "Album=%albumtitle%" -T "Date=%year%" -T "Tracknumber=%tracknr%" -T "Comment=%comment%" %source%
TOC извлечённого CD
Трек | Старт | Длительность | Начальный сектор | Конечный сектор
---------------------------------------------------------------------
1 | 0:00.00 | 3:04.70 | 0 | 13869
2 | 3:04.70 | 5:06.62 | 13870 | 36881
3 | 8:11.57 | 1:51.20 | 36882 | 45226
4 | 10:03.02 | 1:44.35 | 45227 | 53061
5 | 11:47.37 | 2:22.10 | 53062 | 63721
6 | 14:09.47 | 2:34.48 | 63722 | 75319
7 | 16:44.20 | 5:10.02 | 75320 | 98571
8 | 21:54.22 | 5:31.50 | 98572 | 123446
9 | 27:25.72 | 4:10.10 | 123447 | 142206
10 | 31:36.07 | 4:17.53 | 142207 | 161534
11 | 35:53.60 | 5:15.27 | 161535 | 185186
12 | 41:09.12 | 3:32.58 | 185187 | 201144
13 | 44:41.70 | 1:26.05 | 201145 | 207599
14 | 46:08.00 | 0:46.27 | 207600 | 211076
Трек 1
Имя файла E:\Ozifra\1993.Paul Haines - Darn It! (2CD)\CD1\01. Threats That Matter.wav
Длина предзазора 0:00:02.00
Пиковый уровень 100.0 %
Скорость извлечения 1.6 X
Качество трека 99.9 %
CRC теста 885B34AB
CRC копии 885B34AB
Точное извлечение (достоверность 3) [277C2CE8] (AR v1)
Копирование... OK
Трек 2
Имя файла E:\Ozifra\1993.Paul Haines - Darn It! (2CD)\CD1\02. Curtsy.wav
Длина предзазора 0:00:01.38
Пиковый уровень 72.4 %
Скорость извлечения 2.2 X
Качество трека 100.0 %
CRC теста D7119311
CRC копии D7119311
Точное извлечение (достоверность 3) [14EBD0EC] (AR v1)
Копирование... OK
Трек 3
Имя файла E:\Ozifra\1993.Paul Haines - Darn It! (2CD)\CD1\03. What This Was Going To Suppose To Mean.wav
Пиковый уровень 54.6 %
Скорость извлечения 2.0 X
Качество трека 100.0 %
CRC теста 7558AE2E
CRC копии 7558AE2E
Точное извлечение (достоверность 3) [D71D5BD8] (AR v1)
Копирование... OK
Трек 4
Имя файла E:\Ozifra\1993.Paul Haines - Darn It! (2CD)\CD1\04. Funnybird Song.wav
Пиковый уровень 33.2 %
Скорость извлечения 2.0 X
Качество трека 100.0 %
CRC теста 1D4F6524
CRC копии 1D4F6524
Точное извлечение (достоверность 3) [34DDC95C] (AR v1)
Копирование... OK
Трек 5
Имя файла E:\Ozifra\1993.Paul Haines - Darn It! (2CD)\CD1\05. Outside The City.wav
Длина предзазора 0:00:01.10
Пиковый уровень 100.0 %
Скорость извлечения 2.3 X
Качество трека 100.0 %
CRC теста 017B429E
CRC копии 017B429E
Точное извлечение (достоверность 3) [DDC6E413] (AR v1)
Копирование... OK
Трек 6
Имя файла E:\Ozifra\1993.Paul Haines - Darn It! (2CD)\CD1\06. Art In Heaven.wav
Длина предзазора 0:00:00.36
Пиковый уровень 70.4 %
Скорость извлечения 2.4 X
Качество трека 100.0 %
CRC теста 63C82E7A
CRC копии 63C82E7A
Точное извлечение (достоверность 3) [AEA011AD] (AR v1)
Копирование... OK
Трек 7
Имя файла E:\Ozifra\1993.Paul Haines - Darn It! (2CD)\CD1\07. Rawalpindi Blues.wav
Пиковый уровень 100.0 %
Скорость извлечения 2.9 X
Качество трека 100.0 %
CRC теста 1902C378
CRC копии 1902C378
Точное извлечение (достоверность 3) [6BE0139C] (AR v1)
Копирование... OK
Трек 8
Имя файла E:\Ozifra\1993.Paul Haines - Darn It! (2CD)\CD1\08. Sticks In The Mud.wav
Длина предзазора 0:00:00.60
Пиковый уровень 100.0 %
Скорость извлечения 2.8 X
Качество трека 99.9 %
CRC теста A41E3015
CRC копии A41E3015
Точное извлечение (достоверность 3) [434F2128] (AR v1)
Копирование... OK
Трек 9
Имя файла E:\Ozifra\1993.Paul Haines - Darn It! (2CD)\CD1\09. There Aren't These Things Questionable All Over.wav
Пиковый уровень 99.8 %
Скорость извлечения 3.2 X
Качество трека 100.0 %
CRC теста 0B206E06
CRC копии 0B206E06
Точное извлечение (достоверность 3) [0E767A0A] (AR v1)
Копирование... OK
Трек 10
Имя файла E:\Ozifra\1993.Paul Haines - Darn It! (2CD)\CD1\10. Les Paramedicaux Erotiques.wav
Длина предзазора 0:00:00.57
Пиковый уровень 89.6 %
Скорость извлечения 3.3 X
Качество трека 100.0 %
CRC теста 869CFE54
CRC копии 869CFE54
Точное извлечение (достоверность 3) [CB123F65] (AR v1)
Копирование... OK
Трек 11
Имя файла E:\Ozifra\1993.Paul Haines - Darn It! (2CD)\CD1\11. Jubilee.wav
Длина предзазора 0:00:00.65
Пиковый уровень 91.8 %
Скорость извлечения 3.2 X
Качество трека 99.9 %
CRC теста 138D4BA3
CRC копии 138D4BA3
Точное извлечение (достоверность 3) [CBAF4EEB] (AR v1)
Копирование... OK
Трек 12
Имя файла E:\Ozifra\1993.Paul Haines - Darn It! (2CD)\CD1\12. On The Way To Elsewhere And Here.wav
Длина предзазора 0:00:02.00
Пиковый уровень 100.0 %
Скорость извлечения 3.5 X
Качество трека 100.0 %
CRC теста 99F535C3
CRC копии 99F535C3
Точное извлечение (достоверность 3) [44F07B4B] (AR v1)
Копирование... OK
Трек 13
Имя файла E:\Ozifra\1993.Paul Haines - Darn It! (2CD)\CD1\13. Inexplicably.wav
Длина предзазора 0:00:00.65
Пиковый уровень 78.6 %
Скорость извлечения 2.9 X
Качество трека 100.0 %
CRC теста 47E48479
CRC копии 47E48479
Точное извлечение (достоверность 2) [A324EAD3] (AR v1)
Копирование... OK
Трек 14
Имя файла E:\Ozifra\1993.Paul Haines - Darn It! (2CD)\CD1\14. Poem For Gretchen Ruth.wav
Длина предзазора 0:00:00.13
Пиковый уровень 78.8 %
Скорость извлечения 0.2 X
Качество трека 99.7 %
CRC теста 506351E9
CRC копии 506351E9
Точное извлечение (достоверность 2) [059E9912] (AR v1)
Копирование... OK
Все треки извлечены точно
Ошибок не произошло
Конец отчёта
==== Контрольная сумма отчёта 76447CFB658D6281D45BDBE45C63C5983DFE485847DE1B9B21E924D83027A147 ====
 
Содержание индексной карты (.CUE)
REM GENRE Jazz
REM DATE 1993
REM DISCID C60AFE0E
REM COMMENT "ExactAudioCopy v1.0b3"
PERFORMER "Paul Haines"
TITLE "Darn It! (CD1)"
FILE "01. Threats That Matter.wav" WAVE
TRACK 01 AUDIO
TITLE "Threats That Matter"
PERFORMER "Paul Haines"
INDEX 01 00:00:00
TRACK 02 AUDIO
TITLE "Curtsy"
PERFORMER "Paul Haines"
INDEX 00 03:03:32
FILE "02. Curtsy.wav" WAVE
INDEX 01 00:00:00
FILE "03. What This Was Going To Suppose To Mean.wav" WAVE
TRACK 03 AUDIO
TITLE "What This Was Going To Suppose To Mean"
PERFORMER "Paul Haines"
INDEX 01 00:00:00
FILE "04. Funnybird Song.wav" WAVE
TRACK 04 AUDIO
TITLE "Funnybird Song"
PERFORMER "Paul Haines"
INDEX 01 00:00:00
TRACK 05 AUDIO
TITLE "Outside The City"
PERFORMER "Paul Haines"
INDEX 00 01:43:25
FILE "05. Outside The City.wav" WAVE
INDEX 01 00:00:00
TRACK 06 AUDIO
TITLE "Art In Heaven"
PERFORMER "Paul Haines"
INDEX 00 02:21:49
FILE "06. Art In Heaven.wav" WAVE
INDEX 01 00:00:00
FILE "07. Rawalpindi Blues.wav" WAVE
TRACK 07 AUDIO
TITLE "Rawalpindi Blues"
PERFORMER "Paul Haines"
INDEX 01 00:00:00
TRACK 08 AUDIO
TITLE "Sticks In The Mud"
PERFORMER "Paul Haines"
INDEX 00 05:09:17
FILE "08. Sticks In The Mud.wav" WAVE
INDEX 01 00:00:00
FILE "09. There Aren't These Things Questionable All Over.wav" WAVE
TRACK 09 AUDIO
TITLE "There Aren't These Things Questionable All Over"
PERFORMER "Paul Haines"
INDEX 01 00:00:00
TRACK 10 AUDIO
TITLE "Les Paramedicaux Erotiques"
PERFORMER "Paul Haines"
INDEX 00 04:09:28
FILE "10. Les Paramedicaux Erotiques.wav" WAVE
INDEX 01 00:00:00
TRACK 11 AUDIO
TITLE "Jubilee"
PERFORMER "Paul Haines"
INDEX 00 04:16:63
FILE "11. Jubilee.wav" WAVE
INDEX 01 00:00:00
TRACK 12 AUDIO
TITLE "On The Way To Elsewhere And Here"
PERFORMER "Paul Haines"
INDEX 00 05:13:27
FILE "12. On The Way To Elsewhere And Here.wav" WAVE
INDEX 01 00:00:00
TRACK 13 AUDIO
TITLE "Inexplicably"
PERFORMER "Paul Haines"
INDEX 00 03:31:68
FILE "13. Inexplicably.wav" WAVE
INDEX 01 00:00:00
TRACK 14 AUDIO
TITLE "Poem For Gretchen Ruth"
PERFORMER "Paul Haines"
INDEX 00 01:25:67
FILE "14. Poem For Gretchen Ruth.wav" WAVE
INDEX 01 00:00:00
 
CD2 - 00:50:21
Треклист:

01. Just When I Thougt
02. This Dedication
03. Threats That Count
04. What This Was Going To Suppose To Mean
05. Breakfast
06. Snow Variations On Darn It!
07. Darn It!
08. Route Doubt
09. Ask Me If You Know
10. Those Sweet Blue Olives Of Bombay
11. Hello
12. Mrs. Dressup
13. Third World Two Medley: She Was Showing Me/Boint Liver
14. Breakfast (Late)
15. The Please Fasten Your Seatbelt Sign
16. Testing Testing
17. Darn It! Reprise (Down In Back!)
18. Threats That Can't Read
19. C'Etait Dans La Nuit
 
Лог создания рипа
Exact Audio Copy V1.0 beta 3 from 29. August 2011
Отчёт EAC об извлечении, выполненном 20. марта 2012, 19:08
Paul Haines / Darn It! (CD2)
Дисковод: TSSTcorpCDDVDW SH-S223C Adapter: 5 ID: 0
Режим чтения : Достоверность
Использование точного потока : Да
Отключение кэша аудио : Да
Использование указателей C2 : Нет
Коррекция смещения при чтении : 697
Способность читать области Lead-in и Lead-out : Нет
Заполнение пропущенных сэмплов тишиной : Да
Удаление блоков с тишиной в начале и конце : Нет
При вычислениях CRC использовались нулевые сэмплы : Да
Интерфейс : Встроенный Win32-интерфейс для Win NT/2000
Обработка зазоров : Добавлено к предыдущему треку
Выходной формат : Пользовательский кодировщик
Выбранный битрейт : 128 kBit/s
Качество : Высокий
Добавление ID3-тега : Нет
Утилита сжатия : C:\Program Files\Exact Audio Copy\Flac\flac.exe
Дополнительные параметры : -V -8 -T "Genre=%genre%" -T "Artist=%artist%" -T "Title=%title%" -T "Album=%albumtitle%" -T "Date=%year%" -T "Tracknumber=%tracknr%" -T "Comment=%comment%" %source%
TOC извлечённого CD
Трек | Старт | Длительность | Начальный сектор | Конечный сектор
---------------------------------------------------------------------
1 | 0:00.00 | 0:08.37 | 0 | 636
2 | 0:08.37 | 0:49.53 | 637 | 4364
3 | 0:58.15 | 4:00.52 | 4365 | 22416
4 | 4:58.67 | 2:16.48 | 22417 | 32664
5 | 7:15.40 | 3:35.72 | 32665 | 48861
6 | 10:51.37 | 4:06.18 | 48862 | 67329
7 | 14:57.55 | 0:58.60 | 67330 | 71739
8 | 15:56.40 | 1:07.50 | 71740 | 76814
9 | 17:04.15 | 4:14.42 | 76815 | 95906
10 | 21:18.57 | 4:14.13 | 95907 | 114969
11 | 25:32.70 | 2:17.25 | 114970 | 125269
12 | 27:50.20 | 2:25.72 | 125270 | 136216
13 | 30:16.17 | 2:32.10 | 136217 | 147626
14 | 32:48.27 | 1:05.38 | 147627 | 152539
15 | 33:53.65 | 2:30.30 | 152540 | 163819
16 | 36:24.20 | 3:01.67 | 163820 | 177461
17 | 39:26.12 | 1:08.68 | 177462 | 182629
18 | 40:35.05 | 4:51.40 | 182630 | 204494
19 | 45:26.45 | 4:55.17 | 204495 | 226636
Трек 1
Имя файла E:\Ozifra\1993.Paul Haines - Darn It! (2CD)\CD2\01. Just When I Thougt.wav
Длина предзазора 0:00:02.00
Пиковый уровень 99.9 %
Скорость извлечения 0.3 X
Качество трека 100.0 %
CRC теста 9A3A4E60
CRC копии 9A3A4E60
Точное извлечение (достоверность 3) [73586EEE] (AR v1)
Копирование... OK
Трек 2
Имя файла E:\Ozifra\1993.Paul Haines - Darn It! (2CD)\CD2\02. This Dedication.wav
Пиковый уровень 80.5 %
Скорость извлечения 1.2 X
Качество трека 100.0 %
CRC теста 97253600
CRC копии 97253600
Точное извлечение (достоверность 3) [38FD5001] (AR v1)
Копирование... OK
Трек 3
Имя файла E:\Ozifra\1993.Paul Haines - Darn It! (2CD)\CD2\03. Threats That Count.wav
Длина предзазора 0:00:00.15
Пиковый уровень 79.2 %
Скорость извлечения 1.8 X
Качество трека 99.9 %
CRC теста A067FD03
CRC копии A067FD03
Точное извлечение (достоверность 3) [36C93D53] (AR v1)
Копирование... OK
Трек 4
Имя файла E:\Ozifra\1993.Paul Haines - Darn It! (2CD)\CD2\04. What This Was Going To Suppose To Mean.wav
Длина предзазора 0:00:02.67
Пиковый уровень 58.0 %
Скорость извлечения 2.0 X
Качество трека 100.0 %
CRC теста 5C972D6A
CRC копии 5C972D6A
Точное извлечение (достоверность 3) [42FA95B6] (AR v1)
Копирование... OK
Трек 5
Имя файла E:\Ozifra\1993.Paul Haines - Darn It! (2CD)\CD2\05. Breakfast.wav
Пиковый уровень 100.0 %
Скорость извлечения 2.3 X
Качество трека 100.0 %
CRC теста 85A9DBE4
CRC копии 85A9DBE4
Точное извлечение (достоверность 3) [72C05821] (AR v1)
Копирование... OK
Трек 6
Имя файла E:\Ozifra\1993.Paul Haines - Darn It! (2CD)\CD2\06. Snow Variations On Darn It!.wav
Длина предзазора 0:00:04.55
Пиковый уровень 67.6 %
Скорость извлечения 2.5 X
Качество трека 100.0 %
CRC теста 50C0ADE6
CRC копии 50C0ADE6
Точное извлечение (достоверность 3) [EE79B9BB] (AR v1)
Копирование... OK
Трек 7
Имя файла E:\Ozifra\1993.Paul Haines - Darn It! (2CD)\CD2\07. Darn It!.wav
Пиковый уровень 85.5 %
Скорость извлечения 1.8 X
Качество трека 100.0 %
CRC теста 625F35FC
CRC копии 625F35FC
Точное извлечение (достоверность 3) [8C466816] (AR v1)
Копирование... OK
Трек 8
Имя файла E:\Ozifra\1993.Paul Haines - Darn It! (2CD)\CD2\08. Route Doubt.wav
Длина предзазора 0:00:01.55
Пиковый уровень 63.9 %
Скорость извлечения 1.9 X
Качество трека 100.0 %
CRC теста CFF8E549
CRC копии CFF8E549
Точное извлечение (достоверность 3) [21AA03B2] (AR v1)
Копирование... OK
Трек 9
Имя файла E:\Ozifra\1993.Paul Haines - Darn It! (2CD)\CD2\09. Ask Me If You Know.wav
Длина предзазора 0:00:00.23
Пиковый уровень 74.7 %
Скорость извлечения 2.8 X
Качество трека 100.0 %
CRC теста A70E187A
CRC копии A70E187A
Точное извлечение (достоверность 3) [5747B306] (AR v1)
Копирование... OK
Трек 10
Имя файла E:\Ozifra\1993.Paul Haines - Darn It! (2CD)\CD2\10. Those Sweet Blue Olives Of Bombay.wav
Длина предзазора 0:00:05.30
Пиковый уровень 99.9 %
Скорость извлечения 3.0 X
Качество трека 100.0 %
CRC теста 6E853B66
CRC копии 6E853B66
Точное извлечение (достоверность 3) [3ABA1F0C] (AR v1)
Копирование... OK
Трек 11
Имя файла E:\Ozifra\1993.Paul Haines - Darn It! (2CD)\CD2\11. Hello.wav
Пиковый уровень 100.0 %
Скорость извлечения 2.8 X
Качество трека 100.0 %
CRC теста 7E33F8B1
CRC копии 7E33F8B1
Точное извлечение (достоверность 3) [45FDBF58] (AR v1)
Копирование... OK
Трек 12
Имя файла E:\Ozifra\1993.Paul Haines - Darn It! (2CD)\CD2\12. Mrs. Dressup.wav
Длина предзазора 0:00:03.53
Пиковый уровень 99.9 %
Скорость извлечения 2.9 X
Качество трека 100.0 %
CRC теста 000A77F4
CRC копии 000A77F4
Точное извлечение (достоверность 3) [A7BAAB2E] (AR v1)
Копирование... OK
Трек 13
Имя файла E:\Ozifra\1993.Paul Haines - Darn It! (2CD)\CD2\13. Third World Two Medley- She Was Showing Me,Boint Liver.wav
Длина предзазора 0:00:01.55
Пиковый уровень 61.8 %
Скорость извлечения 3.0 X
Качество трека 100.0 %
CRC теста DEE2B791
CRC копии DEE2B791
Точное извлечение (достоверность 3) [75AC39D8] (AR v1)
Копирование... OK
Трек 14
Имя файла E:\Ozifra\1993.Paul Haines - Darn It! (2CD)\CD2\14. Breakfast (Late).wav
Длина предзазора 0:00:01.55
Пиковый уровень 85.1 %
Скорость извлечения 2.4 X
Качество трека 100.0 %
CRC теста 16EA5018
CRC копии 16EA5018
Точное извлечение (достоверность 3) [0CBD7D94] (AR v1)
Копирование... OK
Трек 15
Имя файла E:\Ozifra\1993.Paul Haines - Darn It! (2CD)\CD2\15. The Please Fasten Your Seatbelt Sign.wav
Длина предзазора 0:00:00.23
Пиковый уровень 100.0 %
Скорость извлечения 2.5 X
Качество трека 99.9 %
CRC теста C8498876
CRC копии C8498876
Точное извлечение (достоверность 3) [B6B55480] (AR v1)
Копирование... OK
Трек 16
Имя файла E:\Ozifra\1993.Paul Haines - Darn It! (2CD)\CD2\16. Testing Testing.wav
Пиковый уровень 57.1 %
Скорость извлечения 2.8 X
Качество трека 99.9 %
CRC теста A6792300
CRC копии A6792300
Точное извлечение (достоверность 3) [1FBD5929] (AR v1)
Копирование... OK
Трек 17
Имя файла E:\Ozifra\1993.Paul Haines - Darn It! (2CD)\CD2\17. Darn It! Reprise (Down In Back!).wav
Длина предзазора 0:00:00.72
Пиковый уровень 55.0 %
Скорость извлечения 2.5 X
Качество трека 100.0 %
CRC теста B8C2F000
CRC копии B8C2F000
Точное извлечение (достоверность 3) [630A2323] (AR v1)
Копирование... OK
Трек 18
Имя файла E:\Ozifra\1993.Paul Haines - Darn It! (2CD)\CD2\18. Threats That Can't Read.wav
Пиковый уровень 75.0 %
Скорость извлечения 3.6 X
Качество трека 100.0 %
CRC теста 14AF31FB
CRC копии 14AF31FB
Точное извлечение (достоверность 3) [3F096216] (AR v1)
Копирование... OK
Трек 19
Имя файла E:\Ozifra\1993.Paul Haines - Darn It! (2CD)\CD2\19. C'Etait Dans La Nuit.wav
Длина предзазора 0:00:11.15
Пиковый уровень 83.0 %
Скорость извлечения 3.8 X
Качество трека 100.0 %
CRC теста E9A001E2
CRC копии E9A001E2
Точное извлечение (достоверность 3) [6CC01D48] (AR v1)
Копирование... OK
Все треки извлечены точно
Ошибок не произошло
Конец отчёта
==== Контрольная сумма отчёта 7462C67F68CE610B5A2947D8DA95EADE4ED89EF2769160376F5039C9924D6B0A ====
 
Содержание индексной карты (.CUE)
REM GENRE Jazz
REM DATE 1993
REM DISCID FD0BCD13
REM COMMENT "ExactAudioCopy v1.0b3"
PERFORMER "Paul Haines"
TITLE "Darn It! (CD2)"
FILE "01. Just When I Thougt.wav" WAVE
TRACK 01 AUDIO
TITLE "Just When I Thougt"
PERFORMER "Paul Haines"
INDEX 01 00:00:00
FILE "02. This Dedication.wav" WAVE
TRACK 02 AUDIO
TITLE "This Dedication"
PERFORMER "Paul Haines"
INDEX 01 00:00:00
TRACK 03 AUDIO
TITLE "Threats That Count"
PERFORMER "Paul Haines"
INDEX 00 00:49:38
FILE "03. Threats That Count.wav" WAVE
INDEX 01 00:00:00
TRACK 04 AUDIO
TITLE "What This Was Going To Suppose To Mean"
PERFORMER "Paul Haines"
INDEX 00 03:57:60
FILE "04. What This Was Going To Suppose To Mean.wav" WAVE
INDEX 01 00:00:00
FILE "05. Breakfast.wav" WAVE
TRACK 05 AUDIO
TITLE "Breakfast"
PERFORMER "Paul Haines"
INDEX 01 00:00:00
TRACK 06 AUDIO
TITLE "Snow Variations On Darn It!"
PERFORMER "Paul Haines"
INDEX 00 03:31:17
FILE "06. Snow Variations On Darn It!.wav" WAVE
INDEX 01 00:00:00
FILE "07. Darn It!.wav" WAVE
TRACK 07 AUDIO
TITLE "Darn It!"
PERFORMER "Paul Haines"
INDEX 01 00:00:00
TRACK 08 AUDIO
TITLE "Route Doubt"
PERFORMER "Paul Haines"
INDEX 00 00:57:05
FILE "08. Route Doubt.wav" WAVE
INDEX 01 00:00:00
TRACK 09 AUDIO
TITLE "Ask Me If You Know"
PERFORMER "Paul Haines"
INDEX 00 01:07:27
FILE "09. Ask Me If You Know.wav" WAVE
INDEX 01 00:00:00
TRACK 10 AUDIO
TITLE "Those Sweet Blue Olives Of Bombay"
PERFORMER "Paul Haines"
INDEX 00 04:09:12
FILE "10. Those Sweet Blue Olives Of Bombay.wav" WAVE
INDEX 01 00:00:00
FILE "11. Hello.wav" WAVE
TRACK 11 AUDIO
TITLE "Hello"
PERFORMER "Paul Haines"
INDEX 01 00:00:00
TRACK 12 AUDIO
TITLE "Mrs. Dressup"
PERFORMER "Paul Haines"
INDEX 00 02:13:47
FILE "12. Mrs. Dressup.wav" WAVE
INDEX 01 00:00:00
TRACK 13 AUDIO
TITLE "Third World Two Medley: She Was Showing Me/Boint Liver"
PERFORMER "Paul Haines"
INDEX 00 02:24:17
FILE "13. Third World Two Medley- She Was Showing Me,Boint Liver.wav" WAVE
INDEX 01 00:00:00
TRACK 14 AUDIO
TITLE "Breakfast (Late)"
PERFORMER "Paul Haines"
INDEX 00 02:30:30
FILE "14. Breakfast (Late).wav" WAVE
INDEX 01 00:00:00
TRACK 15 AUDIO
TITLE "The Please Fasten Your Seatbelt Sign"
PERFORMER "Paul Haines"
INDEX 00 01:05:15
FILE "15. The Please Fasten Your Seatbelt Sign.wav" WAVE
INDEX 01 00:00:00
FILE "16. Testing Testing.wav" WAVE
TRACK 16 AUDIO
TITLE "Testing Testing"
PERFORMER "Paul Haines"
INDEX 01 00:00:00
TRACK 17 AUDIO
TITLE "Darn It! Reprise (Down In Back!)"
PERFORMER "Paul Haines"
INDEX 00 03:00:70
FILE "17. Darn It! Reprise (Down In Back!).wav" WAVE
INDEX 01 00:00:00
FILE "18. Threats That Can't Read.wav" WAVE
TRACK 18 AUDIO
TITLE "Threats That Can't Read"
PERFORMER "Paul Haines"
INDEX 01 00:00:00
TRACK 19 AUDIO
TITLE "C'Etait Dans La Nuit"
PERFORMER "Paul Haines"
INDEX 00 04:40:25
FILE "19. C'Etait Dans La Nuit.wav" WAVE
INDEX 01 00:00:00
 
Состав
Personnel:Paul Haines (vocals); Alex Chilton, Derek Bailey (vocals, guitar); John Tchicai (vocals, saxophone, soprano saxophone, tenor saxophone); Robert Wyatt (vocals, keyboards, percussion); D.K. Dyson, Michel Contat, Tim Haines, Avery Haines, Paul Dutton, Mary Margaret O'Hara, Alva Rogers, Silvana Deluigi, Jack Bruce, Carmen Lundy (vocals); Gary Lucas (guitar, dobro); Jesse Henry, Tim Wright, Leo Nocentelli (guitar); Mary Anne Lifchek (accordion, drums); Mike Veal (saxophone); Evan Parker (soprano saxophone); John Oswald (alto saxophone, music box); Henry Threadgill, Carlos Ward (alto saxophone); David Sanchez , George Cartwright (tenor saxophone); Lewis Barnes (trumpet); Roswell Rudd (trombone); Steve Swallow (piano, organ); Peter Scherer (piano, keyboards, synthesizer); D.D. Jackson, Don Pullen, Derek Baynes, Daniel Freiberg, Michael Snow , Paul Bley, Wayne Horvitz (piano); John Kamevaar (keyboards, sampler); Fernando Saunders (electric bass); Richard Harrington (drums, sampler); Jack Vorvis, Ignacio Berroa, J.T. Lewis, Marque Gilmore, Marvin "Smitty" Smith, Andrew Cyrille, Robby Ameen, Bobby Previte (drums); Ben Nitza (percussion).Recorded between 1986 and 1992.
Any questions -> support@pro-jazz.com. По всем вопросам пишите -> support@pro-jazz.com
23:17
137
Нет комментариев. Ваш будет первым!