Вы используете незарегистрированную версию компонента "Вкладки"!

Поиск

(Modern Creative) Clarion Fracture Zone - Less Stable Elements - 1996, APE (image+.cue), lossless

(Modern Creative) Clarion Fracture Zone - Less Stable Elements - 1996, APE (image+.cue), lossless
Треклист:
Clarion Fracture Zone - Less Stable Elements
Жанр: Modern Creative
Страна-производитель диска: Австралия
Год издания: 1996
Издатель (лейбл): Rufus
Номер по каталогу: RF020
Аудиокодек: APE (*.ape)
Тип рипа: image+.cue
Битрейт аудио: lossless
Продолжительность: 65:11
Источник (релизер): transgressions (hqshare)
Наличие сканов в содержимом раздачи: да
Треклист:
01. Jupiter's Pearls - 10:08
02. Serpentine - 11:12
03. Less Stable Elements - 4:12
04. Jacaranda - 8:04
05. They May Be Giants - 8:25
06. The Water Bearer - 10:04
07. Nomads - 13:06
Состав:
Sandy Evans - tenor saxophone, soprano saxophone
Tony Gorman - alto saxophone, Bb and alto clarinet
Alister Spence - piano, keyboards
Lloyd Swanton - acoustic bass
Toby Hall - drums, glockenspiel
Daryl Pratt - percussion solo (#4)
Recorded at Megaphon Studios in June 1995.
 
Лог создания рипа
EAC extraction logfile from 19. July 2006, 23:27 for CD
Clarion Fracture Zone / Less Stable Elements
Used drive : PIONEER DVD-RW DVR-110D Adapter: 1 ID: 1
Read mode : Secure with NO C2, accurate stream, disable cache
Read offset correction : 48
Overread into Lead-In and Lead-Out : Yes
Used output format : E:\Program Files\Monkey's Audio\MAC.exe (Monkey's Audio Lossless Encoder)
Fast Lossless Compression
Other options :
Fill up missing offset samples with silence : Yes
Delete leading and trailing silent blocks : No
Installed external ASPI interface
Range status and errors
Selected range
Filename K:\Hq\Clarion Fracture Zone\Less Stable Elements\Clarion Fracture Zone - Less Stable Elements.wav
Peak level 96.6 %
Range quality 99.9 %
CRC DCC538B9
Copy OK
No errors occured
End of status report
 
Содержание индексной карты (.CUE)
REM GENRE Jazz
REM DISCID 470F4707
REM COMMENT "ExactAudioCopy v0.95b3"
PERFORMER "Clarion Fracture Zone"
TITLE "Less Stable Elements"
FILE "Clarion Fracture Zone - Less Stable Elements.wav" WAVE
TRACK 01 AUDIO
TITLE "Jupiter's Pearls"
PERFORMER "Clarion Fracture Zone"
ISRC AUPO09630043
INDEX 00 00:00:00
INDEX 01 00:00:32
TRACK 02 AUDIO
TITLE "Serpentine"
PERFORMER "Clarion Fracture Zone"
ISRC AUPO09630044
INDEX 00 10:04:27
INDEX 01 10:08:52
TRACK 03 AUDIO
TITLE "Less Stable Elements"
PERFORMER "Clarion Fracture Zone"
ISRC AUPO09630045
INDEX 00 21:16:70
INDEX 01 21:20:20
TRACK 04 AUDIO
TITLE "Jacaranda"
PERFORMER "Clarion Fracture Zone"
ISRC AUPO09630046
INDEX 00 25:31:07
INDEX 01 25:32:32
TRACK 05 AUDIO
TITLE "They May Be Giants"
PERFORMER "Clarion Fracture Zone"
ISRC AUPO09630047
INDEX 00 33:33:22
INDEX 01 33:36:47
TRACK 06 AUDIO
TITLE "The Water Bearer"
PERFORMER "Clarion Fracture Zone"
ISRC AUPO09630048
INDEX 00 41:59:45
INDEX 01 42:01:70
TRACK 07 AUDIO
TITLE "Nomads"
PERFORMER "Clarion Fracture Zone"
ISRC AUPO09630049
INDEX 00 52:01:32
INDEX 01 52:05:57
 
Об альбоме (сборнике)
'their fourth and best CD to date' Clare Sydney Morning Herald 5 star rating
'Unreservedly recommended' Peter Jordan ROLLING STONE
'CFZ have been well received in these pages and this release continues their streak ...These musicians care more about substance than style' Michael Rosenstein CADENCE
'The playing gets better every time' PENGUIN JAZZ GUIDE
Взамен ушедшей в архив.
Any questions -> support@pro-jazz.com. По всем вопросам пишите -> support@pro-jazz.com
23:15
122
Нет комментариев. Ваш будет первым!