Вы используете незарегистрированную версию компонента "Вкладки"!

Поиск

(Free Improvisation) Reuben Radding - Intersections - 2005, FLAC (tracks+.cue) lossless

Треклист:
Reuben Radding - Intersections
Жанр: Free Improvisation
Страна-производитель диска: USA
Год издания диска: 2005
Издатель (лейбл): Pine Ear Music
Номер по каталогу: PEM001
Аудио кодек: FLAC (*.flac)
Тип рипа: tracks+.cue
Битрейт аудио: lossless
Продолжительность: 55:02
Источник (релизер): собственный рип с оригинального диска.
Наличие сканов в содержимом раздачи: да
Треклист:
01. Brush 5:43
02. Siren 6:57
03. Canal And Lafayette 5:54
04. Bellevue, Bellevue And Bellevue 7:34
05. Jasper's Lies 3:58
06. North 5:59
07. Marginal Way 8:05
08. Making Certain It Goes On 6:40
09. Dance Of Fury 4:09
 
Лог создания рипа
Exact Audio Copy V0.99 prebeta 5 from 4. May 2009
EAC extraction logfile from 15. March 2011, 8:53
Reuben Radding / Intersections
Used drive : TSSTcorpCDDVDW SH-S222A Adapter: 1 ID: 0
Read mode : Secure
Utilize accurate stream : Yes
Defeat audio cache : Yes
Make use of C2 pointers : No
Read offset correction : 6
Overread into Lead-In and Lead-Out : No
Fill up missing offset samples with silence : Yes
Delete leading and trailing silent blocks : No
Null samples used in CRC calculations : Yes
Used interface : Installed external ASPI interface
Gap handling : Appended to previous track
Used output format : User Defined Encoder
Selected bitrate : 768 kBit/s
Quality : High
Add ID3 tag : No
Command line compressor : C:\Tool\Compress\FLAC\flac.exe
Additional command line options : -8 -V -T "ARTIST=%a" -T "TITLE=%t" -T "ALBUM=%g" -T "DATE=%y" -T "TRACKNUMBER=%n" -T "TOTALTRACKS=%x" -T "GENRE=%m" -T "ALBUM ARTIST=%v" -T "COMMENT=EAC V0.99 prebeta 5, Secure Mode, Test & Copy, AccurateRip, FLAC -8" %s
TOC of the extracted CD
Track | Start | Length | Start sector | End sector
---------------------------------------------------------
1 | 0:00.00 | 5:43.14 | 0 | 25738
2 | 5:43.14 | 6:57.13 | 25739 | 57026
3 | 12:40.27 | 5:54.28 | 57027 | 83604
4 | 18:34.55 | 7:34.09 | 83605 | 117663
5 | 26:08.64 | 3:58.65 | 117664 | 135578
6 | 30:07.54 | 5:59.67 | 135579 | 162570
7 | 36:07.46 | 8:05.25 | 162571 | 198970
8 | 44:12.71 | 6:40.46 | 198971 | 229016
9 | 50:53.42 | 4:09.12 | 229017 | 247703
Track 1
Filename C:\! UPLOAD\Reuben Radding - Intersections (2005) [FLAC]\01 - Brush.wav
Pre-gap length 0:00:02.00
Peak level 98.8 %
Track quality 100.0 %
Test CRC E83D8EBC
Copy CRC E83D8EBC
Track not present in AccurateRip database
Copy OK
Track 2
Filename C:\! UPLOAD\Reuben Radding - Intersections (2005) [FLAC]\02 - Siren.wav
Pre-gap length 0:00:02.00
Peak level 98.8 %
Track quality 100.0 %
Test CRC D690A912
Copy CRC D690A912
Track not present in AccurateRip database
Copy OK
Track 3
Filename C:\! UPLOAD\Reuben Radding - Intersections (2005) [FLAC]\03 - Canal and Lafayette.wav
Pre-gap length 0:00:02.00
Peak level 98.8 %
Track quality 100.0 %
Test CRC BDB1441E
Copy CRC BDB1441E
Track not present in AccurateRip database
Copy OK
Track 4
Filename C:\! UPLOAD\Reuben Radding - Intersections (2005) [FLAC]\04 - Bellevue, Bellevue and Bellevue.wav
Pre-gap length 0:00:02.00
Peak level 98.8 %
Track quality 100.0 %
Test CRC 6E5D6D2B
Copy CRC 6E5D6D2B
Track not present in AccurateRip database
Copy OK
Track 5
Filename C:\! UPLOAD\Reuben Radding - Intersections (2005) [FLAC]\05 - Jasper's Lies.wav
Pre-gap length 0:00:02.00
Peak level 98.8 %
Track quality 100.0 %
Test CRC 157C7D55
Copy CRC 157C7D55
Track not present in AccurateRip database
Copy OK
Track 6
Filename C:\! UPLOAD\Reuben Radding - Intersections (2005) [FLAC]\06 - North.wav
Pre-gap length 0:00:02.00
Peak level 98.8 %
Track quality 100.0 %
Test CRC 5D4BC33B
Copy CRC 5D4BC33B
Track not present in AccurateRip database
Copy OK
Track 7
Filename C:\! UPLOAD\Reuben Radding - Intersections (2005) [FLAC]\07 - Marginal Way.wav
Pre-gap length 0:00:02.00
Peak level 98.8 %
Track quality 100.0 %
Test CRC 2D156DBB
Copy CRC 2D156DBB
Track not present in AccurateRip database
Copy OK
Track 8
Filename C:\! UPLOAD\Reuben Radding - Intersections (2005) [FLAC]\08 - Making Certain It Goes On.wav
Pre-gap length 0:00:02.00
Peak level 98.8 %
Track quality 100.0 %
Test CRC 693CC5A2
Copy CRC 693CC5A2
Track not present in AccurateRip database
Copy OK
Track 9
Filename C:\! UPLOAD\Reuben Radding - Intersections (2005) [FLAC]\09 - Dance of Fury.wav
Pre-gap length 0:00:02.00
Peak level 98.8 %
Track quality 100.0 %
Test CRC 5711C537
Copy CRC 5711C537
Track not present in AccurateRip database
Copy OK
None of the tracks are present in the AccurateRip database
No errors occurred
End of status report
 
Содержание индексной карты (.CUE)
REM GENRE Jazz
REM DATE 2005
REM DISCID 750CE609
REM COMMENT "ExactAudioCopy v0.99pb5"
PERFORMER "Reuben Radding"
TITLE "Intersections"
FILE "01 - Brush.wav" WAVE
TRACK 01 AUDIO
TITLE "Brush"
PERFORMER "Reuben Radding"
INDEX 01 00:00:00
TRACK 02 AUDIO
TITLE "Siren"
PERFORMER "Reuben Radding"
INDEX 00 05:41:14
FILE "02 - Siren.wav" WAVE
INDEX 01 00:00:00
TRACK 03 AUDIO
TITLE "Canal and Lafayette"
PERFORMER "Reuben Radding"
INDEX 00 06:55:13
FILE "03 - Canal and Lafayette.wav" WAVE
INDEX 01 00:00:00
TRACK 04 AUDIO
TITLE "Bellevue, Bellevue and Bellevue"
PERFORMER "Reuben Radding"
INDEX 00 05:52:28
FILE "04 - Bellevue, Bellevue and Bellevue.wav" WAVE
INDEX 01 00:00:00
TRACK 05 AUDIO
TITLE "Jasper's Lies"
PERFORMER "Reuben Radding"
INDEX 00 07:32:09
FILE "05 - Jasper's Lies.wav" WAVE
INDEX 01 00:00:00
TRACK 06 AUDIO
TITLE "North"
PERFORMER "Reuben Radding"
INDEX 00 03:56:65
FILE "06 - North.wav" WAVE
INDEX 01 00:00:00
TRACK 07 AUDIO
TITLE "Marginal Way"
PERFORMER "Reuben Radding"
INDEX 00 05:57:67
FILE "07 - Marginal Way.wav" WAVE
INDEX 01 00:00:00
TRACK 08 AUDIO
TITLE "Making Certain It Goes On"
PERFORMER "Reuben Radding"
INDEX 00 08:03:25
FILE "08 - Making Certain It Goes On.wav" WAVE
INDEX 01 00:00:00
TRACK 09 AUDIO
TITLE "Dance of Fury"
PERFORMER "Reuben Radding"
INDEX 00 06:38:46
FILE "09 - Dance of Fury.wav" WAVE
INDEX 01 00:00:00
Доп. информация:
Recorded September 11th, 16th, and 28th, 2005 at studio STATS, Brooklyn, NYC.
 
Об исполнителе (группе)
Reuben Radding has had to take initiative to get his music heard before. Luminescence, http://rutracker.org/forum/viewtopic.php?t=3483818 a recording of duets performed with multi-reedist Daniel Carter, was shopped around and ultimately released by AUM Fidelity in 2002; it gave off a do-it-himself scent that carries over to Intersections, the first release on the bassist's own Pine Ear Music label. Radding is plenty busy, performing and recording in combinations of various size and styles (including wicked work with Seattle's Wally Shoup Trio), but Pine Ear is an example of what jazz musicians must do these days in order to get their music heard, rather than have sessions languish in the can. Radding's trio on this CD offers chamber-style interaction, musical delicacy and whispered intimacies
Radding has one of the thickest tones on the double bass in jazz today; his playing relies on notes that carry on and linger horizontally, while his compositions run the scale vertically. This bidirectionality infuses the music with a favorable creative tension, particularly on the hypnotic "Making Certain it Goes On. Oscar Noriega's snake-charmer clarinet seduces on "Siren, a tone poem that features Radding's evocative arco attack and enables Matt Moran to put the "vibe" in vibraphone with his resonating sustained notes.
"Canal and Lafayette picks up the tempo a bit from "Brush, but continues the same mathematically precise playing by Noriega and Moran, while on "Bellevue, Bellevue and Bellevue, Moran's single-note strikes jump from left to center to right, orienting you to the composition even as its repetitiveness locks your attention. "Marginal Way mixes Radding's arco and pizzicato and alternately pairs him up with his bandmates: mirrored by Moran's metallic vibes, in dialogue with Noriega, then back to Moran for a concluding conversation. Drum fans need not fear. Noriega, Moran and Radding create a world of melody and rhythm all their own.
 
Об альбоме (сборнике)
Check the lineup on this recording and you might get a hint about where it is headed. A bass/vibes/clarinet affair often speaks to brainy, logical, and adroit musicmaking. Intersections is indeed passionate, but in measured doses.
Bassist Reuben Radding is equally comfortable in jazz, classical and ethnic music. His duet disc with Daniel Carter, Luminesence http://rutracker.org/forum/viewtopic.php?t=3483818 (AUM Fidelity, 2003), was a modern classic. He has also worked with Jack Wright, John Zorn and Dave Douglas. Calling in Oscar Noriega (from Satoko Fujii's NY Big Band) and Matt Moran (from John Hollenbeck's ensembles), Radding brings two soon-to-be-superstars of the new jazz scene to the table. Noriega's Luciano's Dream (Omnitone) was a top ten pick for many critics in 2000.
Radding penned six of the nine tracks. Two are group creations and the closer is a version of Olivier Messiaen's "Dance Of Fury". His bass playing reminds me of Mario Pavone, favoring a warm, rounded tone, and playing off others quite well. That's why he is included in many small group and chamber settings.
Noriega's clarinet playing follows from his saxophone prowess. He chooses, like Moran, to keep things inside, favoring small gestures and phrases. This is very agreeable chamber music. Moran for his part is a perfect guest, ringing his vibes and simmering throughout. On "North he lays down a humming that Radding bows over to great effect.
Interestions bears repeated spins on your psyche.
 
Состав
Oscar Noriega - clarinet
Reuben Radding - double bass
Matt Moran - vibraphone
Any questions -> support@pro-jazz.com. По всем вопросам пишите -> support@pro-jazz.com
09:53
131
Нет комментариев. Ваш будет первым!