Вы используете незарегистрированную версию компонента "Вкладки"!

Поиск

(Free Jazz) Matthew Shipp - William Parker - Guillermo E.Brown - The Trio Plays Ware - 2004, FLAC (tracks+.cue) lossless

Треклист:
Matthew Shipp - William Parker - Guillermo E.Brown - The Trio Plays Ware
Жанр: Free Jazz
Страна-производитель диска: Italy
Год издания диска: 2004
Издатель (лейбл): Splasc(H) Records
Номер по каталогу: CDH 862.2
Аудио кодек: FLAC (*.flac)
Тип рипа: tracks+.cue
Битрейт аудио: lossless
Продолжительность: 52:11
Источник (релизер): собственный рип с оригинального диска.
Наличие сканов в содержимом раздачи: да
Треклист:
01. Manu's Ideal 5:31
02. Godspelized 6:56
03. Dinosauria 4:49
04. Lexicon 8:28
05. Reign Of Peace 5:09
06. Wisdom Through Time 4:36
07. Dao Forms 8:33
08. Mystic March 7:53
 
Лог создания рипа
Exact Audio Copy V0.99 prebeta 5 from 4. May 2009
EAC extraction logfile from 14. March 2011, 7:39
Matthew Shipp Trio / The Trio Plays Ware
Used drive : TSSTcorpCDDVDW SH-S222A Adapter: 1 ID: 0
Read mode : Secure
Utilize accurate stream : Yes
Defeat audio cache : Yes
Make use of C2 pointers : No
Read offset correction : 6
Overread into Lead-In and Lead-Out : No
Fill up missing offset samples with silence : Yes
Delete leading and trailing silent blocks : No
Null samples used in CRC calculations : Yes
Used interface : Installed external ASPI interface
Gap handling : Appended to previous track
Used output format : User Defined Encoder
Selected bitrate : 768 kBit/s
Quality : High
Add ID3 tag : No
Command line compressor : C:\Tool\Compress\FLAC\flac.exe
Additional command line options : -8 -V -T "ARTIST=%a" -T "TITLE=%t" -T "ALBUM=%g" -T "DATE=%y" -T "TRACKNUMBER=%n" -T "TOTALTRACKS=%x" -T "GENRE=%m" -T "ALBUM ARTIST=%v" -T "COMMENT=EAC V0.99 prebeta 5, Secure Mode, Test & Copy, AccurateRip, FLAC -8" %s
TOC of the extracted CD
Track | Start | Length | Start sector | End sector
---------------------------------------------------------
1 | 0:00.00 | 5:33.07 | 0 | 24981
2 | 5:33.07 | 6:56.28 | 24982 | 56209
3 | 12:29.35 | 4:52.48 | 56210 | 78157
4 | 17:22.08 | 8:27.63 | 78158 | 116245
5 | 25:49.71 | 5:11.56 | 116246 | 139626
6 | 31:01.52 | 4:39.69 | 139627 | 160620
7 | 35:41.46 | 8:36.65 | 160621 | 199385
8 | 44:18.36 | 7:53.01 | 199386 | 234861
Track 1
Filename C:\! UPLOAD\Shipp - Parker - Brown - The Trio Plays Ware (2003) [FLAC]\01 - Manu's Ideal.wav
Pre-gap length 0:00:02.00
Peak level 100.0 %
Track quality 100.0 %
Test CRC B01F4F5A
Copy CRC B01F4F5A
Track not present in AccurateRip database
Copy OK
Track 2
Filename C:\! UPLOAD\Shipp - Parker - Brown - The Trio Plays Ware (2003) [FLAC]\02 - Godspelized.wav
Peak level 98.8 %
Track quality 100.0 %
Test CRC 33DA841F
Copy CRC 33DA841F
Track not present in AccurateRip database
Copy OK
Track 3
Filename C:\! UPLOAD\Shipp - Parker - Brown - The Trio Plays Ware (2003) [FLAC]\03 - Dinosauria.wav
Peak level 98.8 %
Track quality 100.0 %
Test CRC CC263D6D
Copy CRC CC263D6D
Track not present in AccurateRip database
Copy OK
Track 4
Filename C:\! UPLOAD\Shipp - Parker - Brown - The Trio Plays Ware (2003) [FLAC]\04 - Lexicon.wav
Peak level 98.8 %
Track quality 100.0 %
Test CRC 3DEA291C
Copy CRC 3DEA291C
Track not present in AccurateRip database
Copy OK
Track 5
Filename C:\! UPLOAD\Shipp - Parker - Brown - The Trio Plays Ware (2003) [FLAC]\05 - Reign of Peace.wav
Peak level 100.0 %
Track quality 100.0 %
Test CRC EB96A952
Copy CRC EB96A952
Track not present in AccurateRip database
Copy OK
Track 6
Filename C:\! UPLOAD\Shipp - Parker - Brown - The Trio Plays Ware (2003) [FLAC]\06 - Wisdom Through Time.wav
Peak level 98.8 %
Track quality 99.9 %
Test CRC 08BA6F92
Copy CRC 08BA6F92
Track not present in AccurateRip database
Copy OK
Track 7
Filename C:\! UPLOAD\Shipp - Parker - Brown - The Trio Plays Ware (2003) [FLAC]\07 - Dao Forms.wav
Peak level 98.8 %
Track quality 100.0 %
Test CRC E2787117
Copy CRC E2787117
Track not present in AccurateRip database
Copy OK
Track 8
Filename C:\! UPLOAD\Shipp - Parker - Brown - The Trio Plays Ware (2003) [FLAC]\08 - Mystic March.wav
Peak level 98.8 %
Track quality 100.0 %
Test CRC 709599FB
Copy CRC 709599FB
Track not present in AccurateRip database
Copy OK
None of the tracks are present in the AccurateRip database
No errors occurred
End of status report
 
Содержание индексной карты (.CUE)
REM GENRE Jazz
REM DATE 2004
REM DISCID 590C3B08
REM COMMENT "ExactAudioCopy v0.99pb5"
PERFORMER "Matthew Shipp Trio"
TITLE "The Trio Plays Ware"
FILE "01 - Manu's Ideal.wav" WAVE
TRACK 01 AUDIO
TITLE "Manu's Ideal"
PERFORMER "Matthew Shipp Trio"
FLAGS DCP
INDEX 01 00:00:00
FILE "02 - Godspelized.wav" WAVE
TRACK 02 AUDIO
TITLE "Godspelized"
PERFORMER "Matthew Shipp Trio"
FLAGS DCP
INDEX 01 00:00:00
FILE "03 - Dinosauria.wav" WAVE
TRACK 03 AUDIO
TITLE "Dinosauria"
PERFORMER "Matthew Shipp Trio"
FLAGS DCP
INDEX 01 00:00:00
FILE "04 - Lexicon.wav" WAVE
TRACK 04 AUDIO
TITLE "Lexicon"
PERFORMER "Matthew Shipp Trio"
FLAGS DCP
INDEX 01 00:00:00
FILE "05 - Reign of Peace.wav" WAVE
TRACK 05 AUDIO
TITLE "Reign of Peace"
PERFORMER "Matthew Shipp Trio"
FLAGS DCP
INDEX 01 00:00:00
FILE "06 - Wisdom Through Time.wav" WAVE
TRACK 06 AUDIO
TITLE "Wisdom Through Time"
PERFORMER "Matthew Shipp Trio"
FLAGS DCP
INDEX 01 00:00:00
FILE "07 - Dao Forms.wav" WAVE
TRACK 07 AUDIO
TITLE "Dao Forms"
PERFORMER "Matthew Shipp Trio"
FLAGS DCP
INDEX 01 00:00:00
FILE "08 - Mystic March.wav" WAVE
TRACK 08 AUDIO
TITLE "Mystic March"
PERFORMER "Matthew Shipp Trio"
FLAGS DCP
INDEX 01 00:00:00
Доп. информация:
Recorded by Eiji at The Studio on April 19, 2003 and mastered by Chris Flam at Mindswerve Studios on April 22, 2003 in Manhattan.
 
Об альбоме (сборнике)
As William Parker states in his brief liner notes to this release, most people think of David S. Ware as a fire-breathing saxophonist rather than a composer. But the members of this trio, Matthew Shipp on piano, William Parker on bass and Guillermo E. Brown on drums, who have been playing with Ware for years hear another aspect to his music and have recorded this CD to draw attention to his compositional skills.
Parker’s bowed bass anchors the opening song “Manu’s Idea” as Matthew Shipp slowly builds up the emotional feeling of the music. “Godspellized” is the title track to Ware’s Penguin Crown winning album. There is a slight gospel tinge to the music, and Parker takes a nice plucked solo before Shipp restates the theme and takes the music out. “Dinosauria” starts with Brown’s drumming, soon he is joined by the rest of the group in a spacious melody which turns into an abstract improvisation led by Shipp using the low end of the piano to give the proceedings a dark foreboding flavor.
“Lexicon” is a fast moving collective improvisation with Shipp balancing low bass notes with sprightly runs. The improvisation gets quite intense at times until Parker evens things out with a fleet fingered solo. “Reign of Peace” begins with Parker on bass, then Shipp comes in with some beautiful and very melodic playing – Brown gently keeps time for him on the drums while Parker backs Shipp’s subtle exploration of the melody. A spare opening from Shipp begins “Dao Forms” and the meditative feel is kept up throughout the length of the performance with light backing from the bass and drums. The meditative nature of the music stays well within the boundaries of this aptly named song. Brown leads off the final song, “Mystic March” with a martial solo before the band joins in. Parker uses his bow again, adding tension to the music, which has a very profound feeling. It’s a little difficult to describe – Parker saws away at the bass while Brown keeps up a military beat and Shipp throws dark notes and chords into the mix.
This disc works very well to both call attention to the talents of the musicians involved and also to give David S. Ware some overdue credit as a composer. While Shipp gets the lions share of the attention on this CD, the trio as a whole plays very well and the music is surprisingly melodic and emotional.
 
Состав
Matthew Shipp - piano
William Parker - bass
Guillermo E. Brown - percussion
По всем вопросам пишите личное сообщение пользователю M0p94ok.
09:52
127
Нет комментариев. Ваш будет первым!