Вы используете незарегистрированную версию компонента "Вкладки"!

Поиск

(Free Improvisation, Free Jazz) Barry Guy - Mats Gustafsson - Raymond Strid - Tarfala - 2008, FLAC (tracks+.cue) lossless

Треклист:
Barry Guy - Mats Gustafsson - Raymond Strid ~ Tarfala
Жанр: Free Improvisation, Free Jazz
Страна-производитель диска: Switzerland
Год издания диска: 2008
Издатель (лейбл): Maya Recordings
Номер по каталогу: MCD0801
Аудио кодек: FLAC (*.flac)
Тип рипа: tracks+.cue
Битрейт аудио: lossless
Продолжительность: 1:06:22
Источник (релизер): собственный рип с оригинального диска.
Наличие сканов в содержимом раздачи: да
Треклист:
01. Tarfala
02. Taku
03. Icefall
04. Porphyr
 
Лог создания рипа
Exact Audio Copy V0.99 prebeta 5 from 4. May 2009
EAC extraction logfile from 13. March 2011, 20:40
Barry Guy, Mats Gustafsson, Raymond Strid / Tarfala
Used drive : TSSTcorpCDDVDW SH-S222A Adapter: 1 ID: 0
Read mode : Secure
Utilize accurate stream : Yes
Defeat audio cache : Yes
Make use of C2 pointers : No
Read offset correction : 6
Overread into Lead-In and Lead-Out : No
Fill up missing offset samples with silence : Yes
Delete leading and trailing silent blocks : No
Null samples used in CRC calculations : Yes
Used interface : Installed external ASPI interface
Gap handling : Appended to previous track
Used output format : User Defined Encoder
Selected bitrate : 768 kBit/s
Quality : High
Add ID3 tag : No
Command line compressor : C:\Tool\Compress\FLAC\flac.exe
Additional command line options : -8 -V -T "ARTIST=%a" -T "TITLE=%t" -T "ALBUM=%g" -T "DATE=%y" -T "TRACKNUMBER=%n" -T "TOTALTRACKS=%x" -T "GENRE=%m" -T "ALBUM ARTIST=%v" -T "COMMENT=EAC V0.99 prebeta 5, Secure Mode, Test & Copy, AccurateRip, FLAC -8" %s
TOC of the extracted CD
Track | Start | Length | Start sector | End sector
---------------------------------------------------------
1 | 0:00.00 | 27:21.24 | 0 | 123098
2 | 27:21.24 | 9:16.37 | 123099 | 164835
3 | 36:37.61 | 20:09.71 | 164836 | 255581
4 | 56:47.57 | 9:32.21 | 255582 | 298502
Track 1
Filename C:\! UPLOAD\Barry Guy - Mats Gustafsson - Raymond Strid - Tarfala (2008) [FLAC]\01 - Tarfala.wav
Pre-gap length 0:00:02.00
Peak level 94.4 %
Track quality 100.0 %
Test CRC C2FCDB8C
Copy CRC C2FCDB8C
Accurately ripped (confidence 1) [CCF75A7E]
Copy OK
Track 2
Filename C:\! UPLOAD\Barry Guy - Mats Gustafsson - Raymond Strid - Tarfala (2008) [FLAC]\02 - Taku.wav
Peak level 93.7 %
Track quality 100.0 %
Test CRC 4664D5A1
Copy CRC 4664D5A1
Accurately ripped (confidence 1) [7A65FBF0]
Copy OK
Track 3
Filename C:\! UPLOAD\Barry Guy - Mats Gustafsson - Raymond Strid - Tarfala (2008) [FLAC]\03 - Icefall.wav
Peak level 94.4 %
Track quality 100.0 %
Test CRC 8E02E381
Copy CRC 8E02E381
Accurately ripped (confidence 1) [3374A516]
Copy OK
Track 4
Filename C:\! UPLOAD\Barry Guy - Mats Gustafsson - Raymond Strid - Tarfala (2008) [FLAC]\04 - Porphyr.wav
Peak level 94.4 %
Track quality 100.0 %
Test CRC 21BD1EB1
Copy CRC 21BD1EB1
Accurately ripped (confidence 1) [F1B5B28A]
Copy OK
All tracks accurately ripped
No errors occurred
End of status report
 
Содержание индексной карты (.CUE)
REM GENRE Jazz
REM DATE 2008
REM DISCID 350F8C04
REM COMMENT "ExactAudioCopy v0.99pb5"
PERFORMER "Barry Guy, Mats Gustafsson, Raymond Strid"
TITLE "Tarfala"
FILE "01 - Tarfala.wav" WAVE
TRACK 01 AUDIO
TITLE "Tarfala"
PERFORMER "Barry Guy, Mats Gustafsson, Raymond Strid"
ISRC GBAJR0800225
INDEX 01 00:00:00
FILE "02 - Taku.wav" WAVE
TRACK 02 AUDIO
TITLE "Taku"
PERFORMER "Barry Guy, Mats Gustafsson, Raymond Strid"
ISRC GBAJR0800226
INDEX 01 00:00:00
FILE "03 - Icefall.wav" WAVE
TRACK 03 AUDIO
TITLE "Icefall"
PERFORMER "Barry Guy, Mats Gustafsson, Raymond Strid"
ISRC GBAJR0800227
INDEX 01 00:00:00
FILE "04 - Porphyr.wav" WAVE
TRACK 04 AUDIO
TITLE "Porphyr"
PERFORMER "Barry Guy, Mats Gustafsson, Raymond Strid"
ISRC GBAJR0800228
INDEX 01 00:00:00
Доп. информация:
Recorded October 3rd 2006 at Nya Perspektiv, Västeras
Recording produced by Swedish Broadcasting Company, SR/P2.
 
Об альбоме (сборнике)
Raw power, pure energy, free adventure, channeled and controlled music is what you get on this live recording from a performance at Culturen Västerås, Sweden, 2006, by bassist Barry Guy, saxophonist Mats Gustafsson and percussionist Raymond Strid. But more importantly, the trio does it together, extremely close together. You will hear things here that you will have rarely heard, going deep, especially in the middle of the title track. Listen how the trio moves from very "vertical" staccato percussive musical note-dropping to an almost instantaneous outburst of long notes, pizzi to arco, and long wailing sounds on the sax, then slowly bass and drums start propulsing the tune forward, increasing the rhythmic intensity ... then some soft notes and the whole thing falls into silence for some hesitating solo sax tones, and the two other musicians follow suite in a very sensitive subdued fashion, barely disturbing silence, ending in some fluttering sounds, strongly driven by Guy's bass. The second track is quieter, more contemplative at moments, with some squeaking sounds explorations for a short term, yet moving back to silence, as if a flock of birds were disturbed and calmed again. "Icefall", the third track, is again sufficiently lengthy to allow for broad sound explorations, starting with unrelenting power play, then slowing down and even coming close to a melodic approach, with a subtle and sensitive finale. In the last track, Gustafsson switches to baritone sax, going low and deep, while Guy by contrast goes more regularly into the high notes on his bass. This piece, although it starts with pointillistic splatters, evolves into somehting fierce and violent and it is a great closer for this excellent free performance. And even the musicians enjoyed the result.
 
Состав
Mats Gustafsson - tenor, baritone sax, fluteophone
Barry Guy - bass
Raymond Strid - percussion
 
Tarfala Trio
 
and Tarfala glacier
По всем вопросам пишите личное сообщение пользователю M0p94ok.
09:54
164
Нет комментариев. Ваш будет первым!