Вы используете незарегистрированную версию компонента "Вкладки"!

Поиск

(Free Improvisation, Post-Bop) Peter Evans - Zebulon - 2013, FLAC (tracks+.cue), lossless

(Free Improvisation, Post-Bop) Peter Evans - Zebulon - 2013, FLAC (tracks+.cue), lossless
Треклист:
♦ Peter Evans - Zebulon ♦
Жанр: Free Improvisation, Post-Bop
Страна-производитель диска: USA
Год издания: 2013
Издатель (лейбл): MIM
Номер по каталогу: 131
Аудиокодек: FLAC (*.flac)
Тип рипа: tracks+.cue
Битрейт аудио: lossless
Продолжительность: 01:18:29
Источник (релизер): dtromp
Наличие сканов в содержимом раздачи: да
Треклист:
01. 3625 [19:39]
02. Broken Cycles [15:37]
03. Lullaby [17:36]
04. Carnival [25:35]
 
Лог создания рипа
Exact Audio Copy V1.0 beta 3 from 29. August 2011
EAC extraction logfile from 17. November 2013, 15:51
Peter Evans / Zebulon
Used drive : PLEXTOR DVDR PX-860A Adapter: 0 ID: 0
Read mode : Secure
Utilize accurate stream : Yes
Defeat audio cache : Yes
Make use of C2 pointers : No
Read offset correction : 96
Overread into Lead-In and Lead-Out : No
Fill up missing offset samples with silence : Yes
Delete leading and trailing silent blocks : No
Null samples used in CRC calculations : Yes
Used interface : Native Win32 interface for Win NT & 2000
Gap handling : Appended to previous track
Used output format : User Defined Encoder
Selected bitrate : 1024 kBit/s
Quality : High
Add ID3 tag : No
Command line compressor : C:\Program Files\Exact Audio Copy\Flac\flac.exe
Additional command line options : -8 -V -T "ARTIST=%artist%" -T "TITLE=%title%" -T "ALBUM=%albumtitle%" -T "DATE=%year%" -T "TRACKNUMBER=%tracknr%" -T "TOTALTRACKS=%numtracks%" -T "GENRE=%genre%" -T "ALBUMARTIST=%albumartist%" -T "ALBUM ARTIST=%albumartist%" -T "COMMENT=EAC Secure Mode, Test & Copy, AccurateRip, FLAC -8" %source%
TOC of the extracted CD
Track | Start | Length | Start sector | End sector
---------------------------------------------------------
1 | 0:00.00 | 19:39.70 | 0 | 88494
2 | 19:39.70 | 15:37.54 | 88495 | 158823
3 | 35:17.49 | 17:36.45 | 158824 | 238068
4 | 52:54.19 | 25:35.09 | 238069 | 353202
Track 1
Filename O:\DL\Peter Evans - Zebulon (2013) [FLAC]\01 - 3625.wav
Pre-gap length 0:00:02.00
Peak level 100.0 %
Extraction speed 3.5 X
Track quality 99.9 %
Test CRC F53D9122
Copy CRC F53D9122
Track not present in AccurateRip database
Copy OK
Track 2
Filename O:\DL\Peter Evans - Zebulon (2013) [FLAC]\02 - Broken Cycles.wav
Peak level 100.0 %
Extraction speed 4.0 X
Track quality 99.9 %
Test CRC C5097040
Copy CRC C5097040
Track not present in AccurateRip database
Copy OK
Track 3
Filename O:\DL\Peter Evans - Zebulon (2013) [FLAC]\03 - Lullaby.wav
Peak level 100.0 %
Extraction speed 8.3 X
Track quality 100.0 %
Test CRC 61658268
Copy CRC 61658268
Track not present in AccurateRip database
Copy OK
Track 4
Filename O:\DL\Peter Evans - Zebulon (2013) [FLAC]\04 - Carnival.wav
Peak level 100.0 %
Extraction speed 1.0 X
Track quality 99.9 %
Test CRC E0D420AF
Copy CRC E0D420AF
Track not present in AccurateRip database
Copy OK
None of the tracks are present in the AccurateRip database
No errors occurred
End of status report
---- CUETools DB Plugin V2.1.3
[CTDB TOCID: 6bPhV26tozpMtVxaOasKJzr9uvY-] found, Submit result: 6bPhV26tozpMtVxaOasKJzr9uvY- has been confirmed
[7b39cb36] (1/1) Accurately ripped
==== Log checksum A0BF7D7C21361756AF117EB2FF667A8BAC3BA7C02464E3256110587E90C088EF ====
 
Содержание индексной карты (.CUE)
REM GENRE Jazz
REM DATE 2013
REM DISCID 2B126504
REM COMMENT "ExactAudioCopy v1.0b3"
PERFORMER "Peter Evans"
TITLE "Zebulon"
FILE "01 - 3625.wav" WAVE
TRACK 01 AUDIO
TITLE "3625"
PERFORMER "Peter Evans"
FLAGS DCP
INDEX 01 00:00:00
FILE "02 - Broken Cycles.wav" WAVE
TRACK 02 AUDIO
TITLE "Broken Cycles"
PERFORMER "Peter Evans"
FLAGS DCP
INDEX 01 00:00:00
FILE "03 - Lullaby.wav" WAVE
TRACK 03 AUDIO
TITLE "Lullaby"
PERFORMER "Peter Evans"
FLAGS DCP
INDEX 01 00:00:00
FILE "04 - Carnival.wav" WAVE
TRACK 04 AUDIO
TITLE "Carnival"
PERFORMER "Peter Evans"
FLAGS DCP
INDEX 01 00:00:00
 
Состав
Peter Evans - trumpet
John Hebert - bass
Kassa Overall - drums
По всем вопросам пишите личное сообщение пользователю M0p94ok.
20:36
151
Нет комментариев. Ваш будет первым!