Вы используете незарегистрированную версию компонента "Вкладки"!

Поиск

(Free Improvisation / Avant-Garde Jazz) Agustí Fernández (Agusti Fernandez) Liquid Trio (Albert Cirera, Ramon Prats) - Primer dia i ultima nit - 2013, FLAC (tracks+.cue), lossless

(Free Improvisation / Avant-Garde Jazz) Agustí Fernández (Agusti Fernandez) Liquid Trio (Albert Cirera, Ramon Prats) - Primer dia i ultima nit - 2013, FLAC (tracks+.cue), lossless
Треклист:
Agustí Fernández Liquid Trio - Primer dia i última nit
Жанр: Free Improvisation / Avant-Garde Jazz
Страна-производитель диска: Spain
Год издания: 2013
Издатель (лейбл): Sirulita Records
Номер по каталогу: SR 1301
Аудиокодек: FLAC (*.flac)
Тип рипа: tracks+.cue
Битрейт аудио: lossless
Продолжительность: 00:53:04
Источник (релизер): nnm, Джаз Клуб, 25 октября, 2013 / спасибо mishka1981
Наличие сканов в содержимом раздачи: да
Треклист:
Primer dia
1. Pel carrer del mig (12:37)
2. Dues vegades a la dreta (08:23)
3. Quasi al final (09:23)
Última nit
4. Enmig d'una ventada (02:33)
5. Claror lunar (06:32)
6. Baf (03:18)
7. Taques de sang (04:41)
8. Cel blau o groc (05:33)
Доп. информация:
Musicians:
Agustí Fernández - piano
Albert Cirera - saxos tenor i soprano
Ramon Prats - bateria
Enregistrat a L'Obrador, Sant Pere de Vilamajor, Barcelona
"Primer dia" enregistrat el 6 de Julio de 2011, "Última nit" enregistrat els 16 i 19 de març de 2012
Agustí Fernández Official Site
 
Лог создания рипа
Exact Audio Copy V1.0 beta 1 from 15. November 2010
EAC extraction logfile from 24. October 2013, 23:02
Agusti Fernandez Liquid Trio / Primer dia i ultima nit
Used drive : TSSTcorpCDDVDW TS-L633A Adapter: 3 ID: 0
Read mode : Secure
Utilize accurate stream : Yes
Defeat audio cache : Yes
Make use of C2 pointers : No
Read offset correction : 6
Overread into Lead-In and Lead-Out : No
Fill up missing offset samples with silence : Yes
Delete leading and trailing silent blocks : No
Null samples used in CRC calculations : Yes
Used interface : Installed external ASPI interface
Gap handling : Appended to previous track
Used output format : User Defined Encoder
Selected bitrate : 896 kBit/s
Quality : High
Add ID3 tag : No
Command line compressor : C:\Program Files\Exact Audio Copy\FLAC\FLAC.EXE
Additional command line options : -8 -V -T "ARTIST=%a" -T "TITLE=%t" -T "ALBUM=%g" -T "DATE=%y" -T "TRACKNUMBER=%n" -T "TOTALTRACKS=%x" -T "GENRE=%m" -T "ALBUMARTIST=%v" -T "ALBUM ARTIST=%v" -T "COMMENT=EAC Secure Mode, Test & Copy, AccurateRip, FLAC -8" %s
TOC of the extracted CD
Track | Start | Length | Start sector | End sector
---------------------------------------------------------
1 | 0:00.00 | 12:36.56 | 0 | 56755
2 | 12:36.56 | 8:22.01 | 56756 | 94406
3 | 20:58.57 | 9:23.14 | 94407 | 136645
4 | 30:21.71 | 2:32.36 | 136646 | 148081
5 | 32:54.32 | 6:32.03 | 148082 | 177484
6 | 39:26.35 | 3:17.33 | 177485 | 192292
7 | 42:43.68 | 4:41.21 | 192293 | 213388
8 | 47:25.14 | 5:39.24 | 213389 | 238837
Track 1
Filename C:\MY RIPS\01 - Pel carrer mes llarg.wav
Pre-gap length 0:00:02.00
Peak level 92.3 %
Extraction speed 1.3 X
Track quality 99.9 %
Test CRC D15B45A2
Copy CRC D15B45A2
Track not present in AccurateRip database
Copy OK
Track 2
Filename C:\MY RIPS\02 - Dues vegades a la dreta.wav
Peak level 92.3 %
Extraction speed 1.7 X
Track quality 100.0 %
Test CRC 974BF7C8
Copy CRC 974BF7C8
Track not present in AccurateRip database
Copy OK
Track 3
Filename C:\MY RIPS\03 - Quasi al final.wav
Peak level 92.2 %
Extraction speed 1.6 X
Track quality 99.9 %
Test CRC 34B55CAD
Copy CRC 34B55CAD
Track not present in AccurateRip database
Copy OK
Track 4
Filename C:\MY RIPS\04 - Enmig d'una ventada.wav
Peak level 92.2 %
Extraction speed 1.7 X
Track quality 100.0 %
Test CRC 21CADC9A
Copy CRC 21CADC9A
Track not present in AccurateRip database
Copy OK
Track 5
Filename C:\MY RIPS\05 - Claror llunar.wav
Peak level 92.3 %
Extraction speed 2.0 X
Track quality 100.0 %
Test CRC 4A087840
Copy CRC 4A087840
Track not present in AccurateRip database
Copy OK
Track 6
Filename C:\MY RIPS\06 - Baf.wav
Peak level 92.2 %
Extraction speed 1.9 X
Track quality 100.0 %
Test CRC A93947E6
Copy CRC A93947E6
Track not present in AccurateRip database
Copy OK
Track 7
Filename C:\MY RIPS\07 - Taques de sang.wav
Peak level 92.3 %
Extraction speed 2.1 X
Track quality 100.0 %
Test CRC 33FEB926
Copy CRC 33FEB926
Track not present in AccurateRip database
Copy OK
Track 8
Filename C:\MY RIPS\08 - Cel blau o groc.wav
Peak level 81.4 %
Extraction speed 2.2 X
Track quality 100.0 %
Test CRC 3D9C3901
Copy CRC 3D9C3901
Track not present in AccurateRip database
Copy OK
None of the tracks are present in the AccurateRip database
No errors occurred
End of status report
==== Log checksum 9C512FBA09CF15EDA5EB1E4DBB75158198EE7EE57864770866048D8F3363F670 ====
 
Содержание индексной карты (.CUE)
REM DISCID 7E0C7008
REM COMMENT "ExactAudioCopy v1.0b1"
PERFORMER "Agusti Fernandez Liquid Trio"
TITLE "Primer dia i ultima nit"
FILE "01 - Pel carrer mes llarg.wav" WAVE
TRACK 01 AUDIO
TITLE "Pel carrer mes llarg"
PERFORMER "Agusti Fernandez Liquid Trio"
INDEX 01 00:00:00
FILE "02 - Dues vegades a la dreta.wav" WAVE
TRACK 02 AUDIO
TITLE "Dues vegades a la dreta"
PERFORMER "Agusti Fernandez Liquid Trio"
INDEX 01 00:00:00
FILE "03 - Quasi al final.wav" WAVE
TRACK 03 AUDIO
TITLE "Quasi al final"
PERFORMER "Agusti Fernandez Liquid Trio"
INDEX 01 00:00:00
FILE "04 - Enmig d'una ventada.wav" WAVE
TRACK 04 AUDIO
TITLE "Enmig d'una ventada"
PERFORMER "Agusti Fernandez Liquid Trio"
INDEX 01 00:00:00
FILE "05 - Claror llunar.wav" WAVE
TRACK 05 AUDIO
TITLE "Claror llunar"
PERFORMER "Agusti Fernandez Liquid Trio"
INDEX 01 00:00:00
FILE "06 - Baf.wav" WAVE
TRACK 06 AUDIO
TITLE "Baf"
PERFORMER "Agusti Fernandez Liquid Trio"
INDEX 01 00:00:00
FILE "07 - Taques de sang.wav" WAVE
TRACK 07 AUDIO
TITLE "Taques de sang"
PERFORMER "Agusti Fernandez Liquid Trio"
INDEX 01 00:00:00
FILE "08 - Cel blau o groc.wav" WAVE
TRACK 08 AUDIO
TITLE "Cel blau o groc"
PERFORMER "Agusti Fernandez Liquid Trio"
INDEX 01 00:00:00
 
auCDtect Task Manager
-----------------------
DON'T MODIFY THIS FILE
-----------------------
PERFORMER: auCDtect Task Manager, ver. 1.5.1RC6 build 1.5.1.7
Copyright (c) 2008-2010 y-soft. All rights reserved
http://y-soft.org
ANALYZER: auCDtect: CD records authenticity detector, version 0.8.2
Copyright (c) 2004 Oleg Berngardt. All rights reserved.
Copyright (c) 2004 Alexander Djourik. All rights reserved.
FILE: 08 - Cel blau o groc.flac
Size: 27784205 Hash: 1AC0C3620F8E15253AF2C0BB9C6A0B2B Accuracy: -m0
Conclusion: CDDA 100%
Signature: 30D5FC9A0F3862758841440665F9F7FBB8D8DC08
FILE: 07 - Taques de sang.flac
Size: 30468059 Hash: 342C5D1B2EE15B809F77ADD34A18BB9C Accuracy: -m0
Conclusion: CDDA 100%
Signature: 036580F8D182B8AF1E97010B303DD994BF218F47
FILE: 06 - Baf.flac
Size: 21163922 Hash: 6085B820C7408F0874D04B342036A4BA Accuracy: -m0
Conclusion: CDDA 100%
Signature: 6AC99C43F93A10F19B5996475CD1B81F09DF20BE
FILE: 05 - Claror llunar.flac
Size: 46410670 Hash: F49B52680E1E6CCE29F5557DA483BBFB Accuracy: -m0
Conclusion: CDDA 100%
Signature: 1DD159F5E651C32488AAC4F4A21855793D28FD82
FILE: 04 - Enmig d'una ventada.flac
Size: 17126322 Hash: FA16C3843DD78E95256490E47ED97700 Accuracy: -m0
Conclusion: CDDA 99%
Signature: FB13B584282223E1DF39677CF145CB6A04369690
FILE: 03 - Quasi al final.flac
Size: 61517038 Hash: E827F3A9F1511D0CC8590CEA0FFC90B0 Accuracy: -m0
Conclusion: CDDA 100%
Signature: 0CFCB2AC28B8A6CF38A441BC0F04DB60A7BE5704
FILE: 02 - Dues vegades a la dreta.flac
Size: 48527341 Hash: 658EF328281DA3DCC6B2179E85C9D14C Accuracy: -m0
Conclusion: CDDA 100%
Signature: 013F04B393DA27809215A643FA8BE7E52BD5F2B2
FILE: 01 - Pel carrer mes llarg.flac
Size: 71884409 Hash: 080B9DA1D8BAEEF84808441F84DC278C Accuracy: -m0
Conclusion: CDDA 99%
Signature: 80DAC5E19DBC66DC1231520D07677E718E047D64
... релизы с участием AGUSTÍ FERNÁNDEZ на трекере ...
По всем вопросам пишите личное сообщение пользователю M0p94ok.
20:37
175
Нет комментариев. Ваш будет первым!