Вы используете незарегистрированную версию компонента "Вкладки"!

Поиск

(Avant-Garde, Free Improvisation, New Age) A Thousand Other Names (G.E. Stinson, Brad Dutz, Nels Cline, Kaoru) - A Thousand Other Names - 1996, FLAC (tracks+.cue), lossless

(Avant-Garde, Free Improvisation, New Age) A Thousand Other Names (G.E. Stinson, Brad Dutz, Nels Cline, Kaoru) - A Thousand Other Names - 1996, FLAC (tracks+.cue), lossless
Треклист:
A Thousand Other Names (G.E. Stinson, Brad Dutz, Nels Cline, Kaoru) / A Thousand Other Names
Жанр: Avant-Garde, Free Improvisation, New Age
Страна-производитель диска: US
Год издания: 1996
Издатель (лейбл): Birdcage
Номер по каталогу: 11014
Страна: US
Аудиокодек: FLAC (*.flac)
Тип рипа: tracks+.cue
Битрейт аудио: lossless
Продолжительность: 55:11
Источник (релизер): свой CD
Наличие сканов в содержимом раздачи: нет
Треклист:
1. Meadows
2. Marie Marie
3. Dirty Boy
4. Walk In The Fire
5. My Paradise
6. Disappear
7. Sister Witness
8. Antioch
 
Лог создания рипа
Exact Audio Copy V1.0 beta 3 from 29. August 2011
EAC extraction logfile from 11. October 2013, 8:46
A Thousand Other Names / A Thousand Other Names
Used drive : HL-DT-STDVDRAM GH41N Adapter: 3 ID: 0
Read mode : Secure
Utilize accurate stream : Yes
Defeat audio cache : Yes
Make use of C2 pointers : No
Read offset correction : 667
Overread into Lead-In and Lead-Out : No
Fill up missing offset samples with silence : Yes
Delete leading and trailing silent blocks : No
Null samples used in CRC calculations : Yes
Used interface : Native Win32 interface for Win NT & 2000
Gap handling : Appended to previous track
Used output format : User Defined Encoder
Selected bitrate : 768 kBit/s
Quality : High
Add ID3 tag : No
Command line compressor : C:\Program Files\Exact Audio Copy\Flac\flac.exe
Additional command line options : -V -8 -T "artist=%artist%" -T "title=%title%" -T "album=%albumtitle%" -T "date=%year%" -T "tracknumber=%tracknr%" -T "genre=%genre%" %source%
TOC of the extracted CD
Track | Start | Length | Start sector | End sector
---------------------------------------------------------
1 | 0:00.00 | 4:42.60 | 0 | 21209
2 | 4:42.60 | 8:33.43 | 21210 | 59727
3 | 13:16.28 | 6:00.50 | 59728 | 86777
4 | 19:17.03 | 7:09.67 | 86778 | 119019
5 | 26:26.70 | 8:47.73 | 119020 | 158617
6 | 35:14.68 | 6:14.02 | 158618 | 186669
7 | 41:28.70 | 6:30.60 | 186670 | 215979
8 | 47:59.55 | 7:11.55 | 215980 | 248359
Track 1
Filename C:\A Thousand Other Names - A Thousand Other Names (1996) [FLAC] {Birdcage-11014}\01 Meadows.wav
Pre-gap length 0:00:02.00
Peak level 100.0 %
Extraction speed 1.2 X
Track quality 100.0 %
Test CRC 1CDE5045
Copy CRC 1CDE5045
Track not present in AccurateRip database
Copy OK
Track 2
Filename C:\A Thousand Other Names - A Thousand Other Names (1996) [FLAC] {Birdcage-11014}\02 Marie Marie.wav
Pre-gap length 0:00:02.46
Peak level 100.0 %
Extraction speed 1.4 X
Track quality 99.9 %
Test CRC E9BA1E3D
Copy CRC E9BA1E3D
Track not present in AccurateRip database
Copy OK
Track 3
Filename C:\A Thousand Other Names - A Thousand Other Names (1996) [FLAC] {Birdcage-11014}\03 Dirty Boy.wav
Peak level 100.0 %
Extraction speed 1.7 X
Track quality 100.0 %
Test CRC CDC5B00D
Copy CRC CDC5B00D
Track not present in AccurateRip database
Copy OK
Track 4
Filename C:\A Thousand Other Names - A Thousand Other Names (1996) [FLAC] {Birdcage-11014}\04 Walk in the Fire.wav
Peak level 100.0 %
Extraction speed 1.9 X
Track quality 100.0 %
Test CRC D54F7002
Copy CRC D54F7002
Track not present in AccurateRip database
Copy OK
Track 5
Filename C:\A Thousand Other Names - A Thousand Other Names (1996) [FLAC] {Birdcage-11014}\05 My Paradise.wav
Pre-gap length 0:00:02.09
Peak level 100.0 %
Extraction speed 2.1 X
Track quality 100.0 %
Test CRC 12B639B3
Copy CRC 12B639B3
Track not present in AccurateRip database
Copy OK
Track 6
Filename C:\A Thousand Other Names - A Thousand Other Names (1996) [FLAC] {Birdcage-11014}\06 Disappear.wav
Pre-gap length 0:00:01.17
Peak level 100.0 %
Extraction speed 2.2 X
Track quality 100.0 %
Test CRC 6EC813B5
Copy CRC 6EC813B5
Track not present in AccurateRip database
Copy OK
Track 7
Filename C:\A Thousand Other Names - A Thousand Other Names (1996) [FLAC] {Birdcage-11014}\07 Sister Witness.wav
Peak level 100.0 %
Extraction speed 2.3 X
Track quality 100.0 %
Test CRC 1406E338
Copy CRC 1406E338
Track not present in AccurateRip database
Copy OK
Track 8
Filename C:\A Thousand Other Names - A Thousand Other Names (1996) [FLAC] {Birdcage-11014}\08 Antioch.wav
Pre-gap length 0:00:02.56
Peak level 100.0 %
Extraction speed 2.5 X
Track quality 100.0 %
Test CRC 747E1441
Copy CRC 747E1441
Track not present in AccurateRip database
Copy OK
None of the tracks are present in the AccurateRip database
No errors occurred
End of status report
---- CUETools DB Plugin V2.1.3
[CTDB TOCID: 2daJ4iDzE9LxuhUvMt6erDhLWiE-] disk not present in database, Submit result: 2daJ4iDzE9LxuhUvMt6erDhLWiE- has been uploaded
==== Log checksum 824590550286C352D482124C95CF6B63C0D187B26AB03AAC81F20CBDD30722B4 ====
 
Содержание индексной карты (.CUE)
REM GENRE Rock
REM DATE 1996
REM DISCID 7A0CEF08
REM COMMENT "ExactAudioCopy v1.0b3"
FILE "01 Meadows.wav" WAVE
TRACK 01 AUDIO
INDEX 01 00:00:00
TRACK 02 AUDIO
INDEX 00 04:40:25
FILE "02 Marie Marie.wav" WAVE
INDEX 01 00:00:00
FILE "03 Dirty Boy.wav" WAVE
TRACK 03 AUDIO
INDEX 01 00:00:00
FILE "04 Walk in the Fire.wav" WAVE
TRACK 04 AUDIO
INDEX 01 00:00:00
TRACK 05 AUDIO
INDEX 00 07:07:60
FILE "05 My Paradise.wav" WAVE
INDEX 01 00:00:00
TRACK 06 AUDIO
INDEX 00 08:46:60
FILE "06 Disappear.wav" WAVE
INDEX 01 00:00:00
FILE "07 Sister Witness.wav" WAVE
TRACK 07 AUDIO
INDEX 01 00:00:00
TRACK 08 AUDIO
INDEX 00 06:28:18
FILE "08 Antioch.wav" WAVE
INDEX 01 00:00:00
 
Об исполнителе (группе)
This was G.E. Stinson's group with Karou (voice), Brad Dutz (percussion), and yours truly. G.E.'s songs (yes, he sings) were excellent vehicles for our unique and atmospheric improvisational style. Well worth listening to if you can find it (and one of my favorite groups i've ever worked with.) By the way, I did the artwork on the album. - Nels Cline
 
Состав
Nels Cline - Guitar
Brad Dutz - Percussion, Sampler, Midi Mallets, Melodica
Kaoru - Voice
G.E. Stinson - Voice, Guitar
По всем вопросам пишите личное сообщение пользователю M0p94ok.
20:36
165
Нет комментариев. Ваш будет первым!