Вы используете незарегистрированную версию компонента "Вкладки"!

Поиск

(Free Improvisation) Peter Brotzmann \ Han Bennink - Total Music Meeting 1977 Berlin - 2006, FLAC (tracks+.cue), lossless

Треклист:
Peter Brötzmann \ Han Bennink - Total Music Meeting 1977 Berlin
Жанр: Free Improvisation
Год выпуска диска: 2006
Производитель диска: brö/eremite records (brö b)
Источник: вот.сиди (balth67)
Аудио кодек: FLAC
Тип рипа: tracks+.cue
Битрейт аудио: lossless
Продолжительность: 1:16:11
Трэклист:
01. (08:44)
02. (04:25)
03. (05:35)
04. (08:41)
05. (03:52)
06. (14:53)
07. (06:52)
08. (04:50)
09. (08:45)
10. (00:46)
11. (08:42)
recorded november 1977, berlin
Peter Brötzmann alto & tenor saxophones, clarinets, piano
Han Bennink drums, toys, mouth-organ, megaphone, banjo, fiddle, singing-saw, trombone, soprano and c-melody sax, piano
 
Отчёт EAC
EAC extraction logfile from 15. April 2007, 13:24 for CD
Peter Brotzmann & Han Bennink / Total Music Meeting 1977
Used drive : LITE-ON LTR-52327S Adapter: 3 ID: 0
Read mode : Secure with NO C2, accurate stream, disable cache
Read offset correction : 6
Overread into Lead-In and Lead-Out : No
Used output format : Internal WAV Routines
44.100 Hz; 16 Bit; Stereo
Other options :
Fill up missing offset samples with silence : Yes
Delete leading and trailing silent blocks : No
Native Win32 interface for Win NT & 2000
Track 1
Filename E:\New Rip\Peter Brotzmann & Han Bennink - Total Music Meeting 1977\01 - Nr. 01.wav
Pre-gap length 0:00:02.00
Peak level 99.4 %
Track quality 100.0 %
Test CRC 9D658DEF
Copy CRC 9D658DEF
Copy OK
Track 2
Filename E:\New Rip\Peter Brotzmann & Han Bennink - Total Music Meeting 1977\02 - Nr. 02.wav
Peak level 99.4 %
Track quality 100.0 %
Test CRC D93DF12F
Copy CRC D93DF12F
Copy OK
Track 3
Filename E:\New Rip\Peter Brotzmann & Han Bennink - Total Music Meeting 1977\03 - Nr. 03.wav
Peak level 99.4 %
Track quality 100.0 %
Test CRC 36649567
Copy CRC 36649567
Copy OK
Track 4
Filename E:\New Rip\Peter Brotzmann & Han Bennink - Total Music Meeting 1977\04 - Nr. 04.wav
Peak level 99.4 %
Track quality 100.0 %
Test CRC B9920467
Copy CRC B9920467
Copy OK
Track 5
Filename E:\New Rip\Peter Brotzmann & Han Bennink - Total Music Meeting 1977\05 - Nr. 05.wav
Peak level 99.4 %
Track quality 100.0 %
Test CRC C233D514
Copy CRC C233D514
Copy OK
Track 6
Filename E:\New Rip\Peter Brotzmann & Han Bennink - Total Music Meeting 1977\06 - Nr. 06.wav
Peak level 99.4 %
Track quality 100.0 %
Test CRC B48AB3DB
Copy CRC B48AB3DB
Copy OK
Track 7
Filename E:\New Rip\Peter Brotzmann & Han Bennink - Total Music Meeting 1977\07 - Nr. 07.wav
Peak level 99.4 %
Track quality 100.0 %
Test CRC 83FEFC22
Copy CRC 83FEFC22
Copy OK
Track 8
Filename E:\New Rip\Peter Brotzmann & Han Bennink - Total Music Meeting 1977\08 - Nr. 08.wav
Peak level 99.4 %
Track quality 100.0 %
Test CRC 87477C5F
Copy CRC 87477C5F
Copy OK
Track 9
Filename E:\New Rip\Peter Brotzmann & Han Bennink - Total Music Meeting 1977\09 - Nr. 09.wav
Peak level 99.4 %
Track quality 100.0 %
Test CRC 18D9540A
Copy CRC 18D9540A
Copy OK
Track 10
Filename E:\New Rip\Peter Brotzmann & Han Bennink - Total Music Meeting 1977\10 - Nr. 10.wav
Peak level 42.1 %
Track quality 100.0 %
Test CRC 2BE79D5E
Copy CRC 2BE79D5E
Copy OK
Track 11
Filename E:\New Rip\Peter Brotzmann & Han Bennink - Total Music Meeting 1977\11 - Nr. 11.wav
Peak level 99.4 %
Track quality 100.0 %
Test CRC A241388C
Copy CRC A241388C
Copy OK
No errors occured
End of status report
 
Отчёт Audiocheckera
AUDIOCHECKER v1.2 - by Dester - opdester@freemail.hu
~~~~~~~~~~~~~~~~~
01 -===- D:\torrents - vj`\total music meeting 1977 (2006)\01 - Nr. 01.flac
Extracted successfully
Conclusion: This track looks like CDDA with probability 100%
02 -===- D:\torrents - vj`\total music meeting 1977 (2006)\02 - Nr. 02.flac
Extracted successfully
Conclusion: This track looks like CDDA with probability 100%
03 -===- D:\torrents - vj`\total music meeting 1977 (2006)\03 - Nr. 03.flac
Extracted successfully
Conclusion: This track looks like CDDA with probability 100%
04 -===- D:\torrents - vj`\total music meeting 1977 (2006)\04 - Nr. 04.flac
Extracted successfully
Conclusion: This track looks like CDDA with probability 99%
05 -===- D:\torrents - vj`\total music meeting 1977 (2006)\05 - Nr. 05.flac
Extracted successfully
Conclusion: This track looks like CDDA with probability 100%
06 -===- D:\torrents - vj`\total music meeting 1977 (2006)\06 - Nr. 06.flac
Extracted successfully
Conclusion: This track looks like CDDA with probability 100%
07 -===- D:\torrents - vj`\total music meeting 1977 (2006)\07 - Nr. 07.flac
Extracted successfully
Conclusion: This track looks like CDDA with probability 100%
08 -===- D:\torrents - vj`\total music meeting 1977 (2006)\08 - Nr. 08.flac
Extracted successfully
Conclusion: This track looks like CDDA with probability 100%
09 -===- D:\torrents - vj`\total music meeting 1977 (2006)\09 - Nr. 09.flac
Extracted successfully
Conclusion: This track looks like CDDA with probability 100%
10 -===- D:\torrents - vj`\total music meeting 1977 (2006)\10 - Nr. 10.flac
Extracted successfully
Conclusion: This track looks like CDDA with probability 100%
11 -===- D:\torrents - vj`\total music meeting 1977 (2006)\11 - Nr. 11.flac
Extracted successfully
Conclusion: This track looks like CDDA with probability 100%
 
cue
REM GENRE Jazz
REM DATE 2006
REM DISCID A711DA0B
REM COMMENT "ExactAudioCopy v0.95b3"
PERFORMER "Peter Brцtzmann & Han Bennink"
TITLE "Total Music Meeting 1977"
FILE "01 - Nr. 01.wav" WAVE
TRACK 01 AUDIO
TITLE "Nr. 01"
PERFORMER "Peter Brцtzmann & Han Bennink"
FLAGS DCP
INDEX 01 00:00:00
FILE "02 - Nr. 02.wav" WAVE
TRACK 02 AUDIO
TITLE "Nr. 02"
PERFORMER "Peter Brцtzmann & Han Bennink"
FLAGS DCP
INDEX 01 00:00:00
FILE "03 - Nr. 03.wav" WAVE
TRACK 03 AUDIO
TITLE "Nr. 03"
PERFORMER "Peter Brцtzmann & Han Bennink"
FLAGS DCP
INDEX 01 00:00:00
FILE "04 - Nr. 04.wav" WAVE
TRACK 04 AUDIO
TITLE "Nr. 04"
PERFORMER "Peter Brцtzmann & Han Bennink"
FLAGS DCP
INDEX 01 00:00:00
FILE "05 - Nr. 05.wav" WAVE
TRACK 05 AUDIO
TITLE "Nr. 05"
PERFORMER "Peter Brцtzmann & Han Bennink"
FLAGS DCP
INDEX 01 00:00:00
FILE "06 - Nr. 06.wav" WAVE
TRACK 06 AUDIO
TITLE "Nr. 06"
PERFORMER "Peter Brцtzmann & Han Bennink"
FLAGS DCP
INDEX 01 00:00:00
FILE "07 - Nr. 07.wav" WAVE
TRACK 07 AUDIO
TITLE "Nr. 07"
PERFORMER "Peter Brцtzmann & Han Bennink"
FLAGS DCP
INDEX 01 00:00:00
FILE "08 - Nr. 08.wav" WAVE
TRACK 08 AUDIO
TITLE "Nr. 08"
PERFORMER "Peter Brцtzmann & Han Bennink"
FLAGS DCP
INDEX 01 00:00:00
FILE "09 - Nr. 09.wav" WAVE
TRACK 09 AUDIO
TITLE "Nr. 09"
PERFORMER "Peter Brцtzmann & Han Bennink"
FLAGS DCP
INDEX 01 00:00:00
FILE "10 - Nr. 10.wav" WAVE
TRACK 10 AUDIO
TITLE "Nr. 10"
PERFORMER "Peter Brцtzmann & Han Bennink"
FLAGS DCP
INDEX 01 00:00:00
FILE "11 - Nr. 11.wav" WAVE
TRACK 11 AUDIO
TITLE "Nr. 11"
PERFORMER "Peter Brцtzmann & Han Bennink"
FLAGS DCP
INDEX 01 00:00:00
По всем вопросам пишите личное сообщение пользователю M0p94ok.
19:34
176
Нет комментариев. Ваш будет первым!