Вы используете незарегистрированную версию компонента "Вкладки"!

Поиск

(Guitar Jazz, Post-Bop) Bill Frisell, Victor Bruce Godsey, Brian Ales - Safety in Numbers/American Blood - 1995, FLAC (image+.cue), lossless

(Guitar Jazz, Post-Bop) Bill Frisell, Victor Bruce Godsey, Brian Ales - Safety in Numbers/American Blood - 1995, FLAC (image+.cue), lossless
Треклист:
Bill Frisell, Victor Bruce Godsey, Brian Ales - Safety in Numbers/American Blood
Жанр: Guitar Jazz, Post-Bop
Год выпуска диска: 1995
Производитель диска: Россия
Аудио кодек: FLAC
Тип рипа: image+.cue
Битрейт аудио: lossless
Продолжительность: 69:08
Происxождение рипа: Собственный рип из личной коллекции
Трэклист:
Safety in Numbers
1. Rovers (Ales, Frisell) 3:38
2. Busy Busy Busy (Ales, Frisell) 3:13
3. On the Range (Ales, Frisell) 2:19
4. The Skulk (Ales, Frisell) 5:03
5. Safety in Numbers (Ales, Frisell) 3:24
6. The Sun Sets Red in Cairo (Ales, Frisell) 3:35
7. Winds of Distraction (Ales, Frisell) 6:08
8. The Dawn of Man [In 3 Movements] (Ales, Frisell) 1:02
9. Truth and Consequence (Ales, Frisell) 2:55
10. Us and Whose Army? (Ales, Frisell) 1:15
American Blood
11. So Thin (Frisell, Godsey) 0:34
12. Circle (Frisell, Godsey) 2:06
13. Chase (Frisell, Godsey) 2:11
14. This Is Only America (Frisell, Godsey) 5:06
15. Trance (Frisell, Godsey) 3:10
16. It's Time (Frisell, Godsey) 2:20
17. Death Dance (Frisell, Godsey) 1:59
18. End of the World (Frisell, Godsey) 2:53
19. Gone, Just Like a Train (Frisell, Godsey) 6:13
20. A Silver Existence (Frisell, Godsey) 1:04
21. Children's Song (Frisell, Godsey) 2:24
22. Highways (Frisell, Godsey) 3:46
23. Restoration (Frisell, Godsey) 2:39
Доп. информация:
Музыканты:
Safety in Numbers
Bill Frisell - Guitars, Ukulele and Banjo
Brian Ales - Sampling and Electronics
American Blood
Bill Frisell - Guitars
Victor Bruce Godsey - Words and Vocals
Brian Ales - Sampling (tr. 16, 19)
 
EAC Report
Exact Audio Copy V0.99 prebeta 4 from 23. January 2008
Отчёт EAC об извлечении, выполненном 6. марта 2010, 16:24
Bill Frisell / Safety in Numbers & American Blood
Дисковод: ASUS DRW-1814BLT Adapter: 2 ID: 0
Режим чтения : Достоверность
Использование точного потока : Да
Отключение кэша аудио : Да
Использование указателей C2 : Нет
Коррекция смещения при чтении : 6
Способность читать области Lead-in и Lead-out : Нет
Заполнение пропущенных сэмплов тишиной : Да
Удаление блоков с тишиной в начале и конце : Нет
При вычислениях CRC использовались нулевые сэмплы : Да
Интерфейс : Встроенный Win32-интерфейс для Win NT/2000
Выходной формат : Пользовательский кодировщик
Выбранный битрейт : 768 kBit/s
Качество : Высокий
Добавление ID3-тэга : Нет
Утилита сжатия : D:\Program Files\Exact Audio Copy\Flac\Flac.exe
Дополнительные параметры : -8 --delete-input-file -o "D:\CDImage.flac" -V %s
TOC извлечённого CD
Трек | Старт | Длительность | Начальный сектор | Конечный сектор
---------------------------------------------------------------------
1 | 0:00.00 | 3:38.65 | 0 | 16414
2 | 3:38.65 | 3:13.30 | 16415 | 30919
3 | 6:52.20 | 2:19.55 | 30920 | 41399
4 | 9:12.00 | 5:03.27 | 41400 | 64151
5 | 14:15.27 | 3:24.13 | 64152 | 79464
6 | 17:39.40 | 3:35.40 | 79465 | 95629
7 | 21:15.05 | 6:08.55 | 95630 | 123284
8 | 27:23.60 | 1:02.05 | 123285 | 127939
9 | 28:25.65 | 2:55.47 | 127940 | 141111
10 | 31:21.37 | 1:15.65 | 141112 | 146801
11 | 32:37.27 | 0:34.33 | 146802 | 149384
12 | 33:11.60 | 2:06.15 | 149385 | 158849
13 | 35:18.00 | 2:11.62 | 158850 | 168736
14 | 37:29.62 | 5:06.48 | 168737 | 191734
15 | 42:36.35 | 3:10.05 | 191735 | 205989
16 | 45:46.40 | 2:20.50 | 205990 | 216539
17 | 48:07.15 | 1:59.52 | 216540 | 225516
18 | 50:06.67 | 2:53.65 | 225517 | 238556
19 | 53:00.57 | 6:13.23 | 238557 | 266554
20 | 59:14.05 | 1:04.20 | 266555 | 271374
21 | 60:18.25 | 2:24.72 | 271375 | 282246
22 | 62:43.22 | 3:46.00 | 282247 | 299196
23 | 66:29.22 | 2:39.25 | 299197 | 311146
Характеристики диапазона извлечения и сообщения об ошибках
Выбранный диапазон
Имя файла D:\Bill Frisell - Safety in Numbers & American Blood.wav
Пиковый уровень 98.9 %
Качество диапазона 100.0 %
CRC теста A7672E16
CRC копии A7672E16
Копирование... OK
Ошибок не произошло
AccurateRip: сводка
Трек 1 точность не определена (достоверность 2) [19158F37], AccurateRip вернул [8F5588EA]
Трек 2 точность не определена (достоверность 2) [92DB65DA], AccurateRip вернул [45F02E50]
Трек 3 точность не определена (достоверность 2) [2C453F3B], AccurateRip вернул [461C978B]
Трек 4 точность не определена (достоверность 2) [AE11CC97], AccurateRip вернул [1BE3A1BA]
Трек 5 точность не определена (достоверность 2) [BA41B8BF], AccurateRip вернул [B70BF9DE]
Трек 6 точность не определена (достоверность 2) [2CA0ECF8], AccurateRip вернул [5D5E6A9B]
Трек 7 точность не определена (достоверность 2) [DE7C43E0], AccurateRip вернул [15408449]
Трек 8 точность не определена (достоверность 2) [E4F27AF2], AccurateRip вернул [C4474005]
Трек 9 точность не определена (достоверность 2) [86112213], AccurateRip вернул [25BEDDF8]
Трек 10 точность не определена (достоверность 2) [5697ACB1], AccurateRip вернул [06D27B58]
Трек 11 точность не определена (достоверность 2) [63957512], AccurateRip вернул [80ED07A4]
Трек 12 точность не определена (достоверность 2) [74941D8D], AccurateRip вернул [2FD95E94]
Трек 13 точность не определена (достоверность 2) [6AAC0037], AccurateRip вернул [B1A53E0E]
Трек 14 точность не определена (достоверность 2) [4ABE0C5A], AccurateRip вернул [87FB8947]
Трек 15 точность не определена (достоверность 2) [B5869031], AccurateRip вернул [F95DE172]
Трек 16 точность не определена (достоверность 2) [182E285A], AccurateRip вернул [ADB2B433]
Трек 17 точность не определена (достоверность 2) [6A289168], AccurateRip вернул [A1D25A56]
Трек 18 точность не определена (достоверность 2) [9D79CD35], AccurateRip вернул [9713367A]
Трек 19 точность не определена (достоверность 2) [0A418279], AccurateRip вернул [E5B6C5B9]
Трек 20 точность не определена (достоверность 2) [1DCCBB56], AccurateRip вернул [023085E0]
Трек 21 точность не определена (достоверность 2) [46DAE120], AccurateRip вернул [B6481B69]
Трек 22 точность не определена (достоверность 2) [479E4B10], AccurateRip вернул [93C53352]
Трек 23 точность не определена (достоверность 2) [3F419685], AccurateRip вернул [8EEB90C6]
Ни один трек не прошёл проверки на точность
В вашей базе может быть иной вариант штамповки диска
Конец отчёта
По всем вопросам пишите личное сообщение пользователю M0p94ok.
19:33
198
Нет комментариев. Ваш будет первым!