Поиск

(Contemporary Jazz, Guitar Jazz) Bill Frisell - Bill Frisell Quartet - 1996, FLAC (image+.cue), lossless

(Contemporary Jazz, Guitar Jazz) Bill Frisell - Bill Frisell Quartet - 1996, FLAC (image+.cue), lossless
Треклист:
Bill Frisell - Bill Frisell Quartet
Жанр: Contemporary Jazz, Guitar Jazz
Год выпуска диска: 1996
Производитель диска: Россия
Аудио кодек: FLAC
Тип рипа: image+.cue
Битрейт аудио: lossless
Продолжительность: 62:02
Происxождение рипа: Собственный рип из личной коллекции
Трэклист:
1. Tales from the Far Side (Frisell) 6:27
2. Twenty Years (Frisell) 2:55
3. Stand Up, Sit Down (Frisell) 5:37
4. Convict 13 (Frisell) 5:36
5. In Deep (Frisell) 3:10
6. Egg Radio (Frisell) 4:31
7. The Bacon Brunch (Frisell) 4:26
8. Prelude (Frisell, Miles) 1:36
9. Bob's Monsters (Frisell) 8:44
10. The Gallows (Frisell) 6:14
11. What? (Frisell) 3:26
12. Dead Ranch (Frisell) 4:27
13. Coffaro's Theme (Frisell) 4:27
Доп. информация:
Музыканты:
Bill Frisell - Electric & Acoustic Guitar
Ron Miles - Trumpet, Piccolo Trumpet
Eyvind Kang - Violin, Tuba
Curtis Fowlkes - Trombone
 
EAC Report
Exact Audio Copy V0.99 prebeta 4 from 23. January 2008
Отчёт EAC об извлечении, выполненном 6. марта 2010, 16:47
Bill Frisell / Bill Frisell Quartet
Дисковод: ASUS DRW-1814BLT Adapter: 2 ID: 0
Режим чтения : Достоверность
Использование точного потока : Да
Отключение кэша аудио : Да
Использование указателей C2 : Нет
Коррекция смещения при чтении : 6
Способность читать области Lead-in и Lead-out : Нет
Заполнение пропущенных сэмплов тишиной : Да
Удаление блоков с тишиной в начале и конце : Нет
При вычислениях CRC использовались нулевые сэмплы : Да
Интерфейс : Встроенный Win32-интерфейс для Win NT/2000
Выходной формат : Пользовательский кодировщик
Выбранный битрейт : 768 kBit/s
Качество : Высокий
Добавление ID3-тэга : Нет
Утилита сжатия : D:\Program Files\Exact Audio Copy\Flac\Flac.exe
Дополнительные параметры : -8 --delete-input-file -o "D:\CDImage.flac" -V %s
TOC извлечённого CD
Трек | Старт | Длительность | Начальный сектор | Конечный сектор
---------------------------------------------------------------------
1 | 0:00.00 | 6:32.37 | 0 | 29436
2 | 6:32.37 | 2:56.38 | 29437 | 42674
3 | 9:29.00 | 5:39.57 | 42675 | 68156
4 | 15:08.57 | 5:38.50 | 68157 | 93556
5 | 20:47.32 | 3:11.10 | 93557 | 107891
6 | 23:58.42 | 4:31.03 | 107892 | 128219
7 | 28:29.45 | 4:27.72 | 128220 | 148316
8 | 32:57.42 | 1:37.23 | 148317 | 155614
9 | 34:34.65 | 8:46.65 | 155615 | 195129
10 | 43:21.55 | 6:15.02 | 195130 | 223256
11 | 49:36.57 | 3:27.68 | 223257 | 238849
12 | 53:04.50 | 4:28.25 | 238850 | 258974
13 | 57:33.00 | 4:27.17 | 258975 | 279016
Характеристики диапазона извлечения и сообщения об ошибках
Выбранный диапазон
Имя файла D:\Bill Frisell - Bill Frisell Quartet.wav
Пиковый уровень 100.0 %
Качество диапазона 100.0 %
CRC теста B6816FCD
CRC копии B6816FCD
Копирование... OK
Ошибок не произошло
AccurateRip: сводка
Трек 1 точность не определена (достоверность 10) [D5087E74], AccurateRip вернул [3EF6F276]
Трек 2 точность не определена (достоверность 10) [A16258B7], AccurateRip вернул [6EC1A1F2]
Трек 3 точность не определена (достоверность 10) [5EF814B7], AccurateRip вернул [7B972B58]
Трек 4 точность не определена (достоверность 10) [EA06160D], AccurateRip вернул [58710408]
Трек 5 точность не определена (достоверность 10) [74439C56], AccurateRip вернул [2C91C1CC]
Трек 6 точность не определена (достоверность 10) [7D295BC9], AccurateRip вернул [296ECD0D]
Трек 7 точность не определена (достоверность 10) [AAFB1C4E], AccurateRip вернул [5F5D7F8C]
Трек 8 точность не определена (достоверность 10) [4941B4A5], AccurateRip вернул [1034B460]
Трек 9 точность не определена (достоверность 10) [9D016745], AccurateRip вернул [672DC30F]
Трек 10 точность не определена (достоверность 10) [7DB94D40], AccurateRip вернул [24828709]
Трек 11 точность не определена (достоверность 10) [F13B4732], AccurateRip вернул [21640AD6]
Трек 12 точность не определена (достоверность 10) [932CB921], AccurateRip вернул [1D979683]
Трек 13 точность не определена (достоверность 9) [151401D7], AccurateRip вернул [8BFA3E9C]
Ни один трек не прошёл проверки на точность
В вашей базе может быть иной вариант штамповки диска
Конец отчёта
По всем вопросам пишите личное сообщение пользователю M0p94ok.
19:35
266
Нет комментариев. Ваш будет первым!