Вы используете незарегистрированную версию компонента "Вкладки"!

Поиск

(Avant-Garde / Free Jazz) The Respect Sextet - Sirius Respect - The Respect Sextet play the music of Sun Ra & Stockhausen2009, FLAC (tracks+.cue), lossless

(Avant-Garde / Free Jazz) The Respect Sextet - Sirius Respect - The Respect Sextet play the music of Sun Ra & Stockhausen2009, FLAC (tracks+.cue), lossless
Треклист:
The Respect Sextet - Sirius Respect
Жанр: Avant-Garde / Free Jazz
Год выпуска : 2009
Лейбл: Mode
Аудио кодек: FLAC
Тип рипа: tracks+.cue
Битрейт аудио: lossless
Продолжительность: 01:10:35
Рип: bbbasdf - What CD


01. Jet Flight (3:42)
02. Leo (5:47)
03. Shadow World (9:49)
04. Dienstagslied (1:14)
05. Angels and Demons at Play (9:29)
06. Lights on a Satellite (6:35)
07. Pisces (3:47)
08. El is the sound of Joy (9:54)
09. Set Sail for the Sun (5:42)
10. Velvet (0:52)
11. Capricorn/Saturn (13:44)

 
EAC
Exact Audio Copy V0.99 prebeta 5 from 4. May 2009
EAC extraction logfile from 5. March 2010, 19:58
The Respect Sextet / The Respect Sextet play the music of Syn Ra & Stockhausen
Used drive : TSSTcorpCD/DVDW SH-S183L Adapter: 5 ID: 0
Read mode : Secure
Utilize accurate stream : Yes
Defeat audio cache : Yes
Make use of C2 pointers : No
Read offset correction : 6
Overread into Lead-In and Lead-Out : No
Fill up missing offset samples with silence : Yes
Delete leading and trailing silent blocks : No
Null samples used in CRC calculations : Yes
Used interface : Native Win32 interface for Win NT & 2000
Gap handling : Appended to previous track
Used output format : User Defined Encoder
Selected bitrate : 320 kBit/s
Quality : High
Add ID3 tag : No
Command line compressor : C:\Program Files (x86)\Exact Audio Copy\FLAC\FLAC.EXE
Additional command line options : -V -8 -T "artist=%a" -T "title=%t" -T "album=%g" -T "date=%y" -T "tracknumber=%n" -T "genre=%m" %s
TOC of the extracted CD
Track | Start | Length | Start sector | End sector
---------------------------------------------------------
1 | 0:00.00 | 3:41.44 | 0 | 16618
2 | 3:41.44 | 5:47.20 | 16619 | 42663
3 | 9:28.64 | 9:48.57 | 42664 | 86820
4 | 19:17.46 | 1:14.31 | 86821 | 92401
5 | 20:32.02 | 9:29.12 | 92402 | 135088
6 | 30:01.14 | 6:34.42 | 135089 | 164680
7 | 36:35.56 | 3:47.14 | 164681 | 181719
8 | 40:22.70 | 9:53.48 | 181720 | 226242
9 | 50:16.43 | 5:42.24 | 226243 | 251916
10 | 55:58.67 | 0:52.10 | 251917 | 255826
11 | 56:51.02 | 13:44.33 | 255827 | 317659
Track 1
Filename t:\torrents\rips\eac\The Respect Sextet - 2009 - Sirius Respect\01 - Jet Flight.wav
Pre-gap length 0:00:02.00
Peak level 94.4 %
Track quality 100.0 %
Test CRC 70D9A813
Copy CRC 70D9A813
Accurately ripped (confidence 1) [65164FE8]
Copy OK
Track 2
Filename t:\torrents\rips\eac\The Respect Sextet - 2009 - Sirius Respect\02 - Leo.wav
Peak level 94.4 %
Track quality 100.0 %
Test CRC 68C69131
Copy CRC 68C69131
Accurately ripped (confidence 1) [35CC9DBE]
Copy OK
Track 3
Filename t:\torrents\rips\eac\The Respect Sextet - 2009 - Sirius Respect\03 - Shadow World.wav
Peak level 94.2 %
Track quality 99.9 %
Test CRC 6B2C6E29
Copy CRC 6B2C6E29
Accurately ripped (confidence 1) [F47C7D8F]
Copy OK
Track 4
Filename t:\torrents\rips\eac\The Respect Sextet - 2009 - Sirius Respect\04 - Dienstagslied.wav
Peak level 94.4 %
Track quality 100.0 %
Test CRC 7462E705
Copy CRC 7462E705
Accurately ripped (confidence 1) [A7BC624F]
Copy OK
Track 5
Filename t:\torrents\rips\eac\The Respect Sextet - 2009 - Sirius Respect\05 - Angels and Demons at Play.wav
Peak level 94.4 %
Track quality 99.9 %
Test CRC 463D2F4D
Copy CRC 463D2F4D
Accurately ripped (confidence 1) [47E4AD3F]
Copy OK
Track 6
Filename t:\torrents\rips\eac\The Respect Sextet - 2009 - Sirius Respect\06 - Lights on a Satellite.wav
Peak level 94.4 %
Track quality 100.0 %
Test CRC 7AF9407F
Copy CRC 7AF9407F
Accurately ripped (confidence 1) [E1AEC9B1]
Copy OK
Track 7
Filename t:\torrents\rips\eac\The Respect Sextet - 2009 - Sirius Respect\07 - Pisces.wav
Peak level 84.9 %
Track quality 100.0 %
Test CRC 732F0D04
Copy CRC 732F0D04
Accurately ripped (confidence 1) [A19D332B]
Copy OK
Track 8
Filename t:\torrents\rips\eac\The Respect Sextet - 2009 - Sirius Respect\08 - El is the sound of Joy.wav
Peak level 91.4 %
Track quality 100.0 %
Test CRC 25865EDA
Copy CRC 25865EDA
Accurately ripped (confidence 1) [415DE0B0]
Copy OK
Track 9
Filename t:\torrents\rips\eac\The Respect Sextet - 2009 - Sirius Respect\09 - Set Sail for the Sun.wav
Peak level 48.7 %
Track quality 99.9 %
Test CRC 379DD14C
Copy CRC 379DD14C
Accurately ripped (confidence 1) [7C0D82E1]
Copy OK
Track 10
Filename t:\torrents\rips\eac\The Respect Sextet - 2009 - Sirius Respect\10 - Velvet.wav
Peak level 94.4 %
Track quality 99.7 %
Test CRC D86EA7EB
Copy CRC D86EA7EB
Accurately ripped (confidence 1) [DF050C9E]
Copy OK
Track 11
Filename t:\torrents\rips\eac\The Respect Sextet - 2009 - Sirius Respect\11 - Capricorn,Saturn.wav
Peak level 94.4 %
Track quality 100.0 %
Test CRC C869E2E1
Copy CRC C869E2E1
Cannot be verified as accurate (confidence 1) [727418DC], AccurateRip returned [ED66D742]
Copy OK
10 track(s) accurately ripped
1 track(s) could not be verified as accurate
Some tracks could not be verified as accurate
No errors occurred
End of status report
 
CUE
REM GENRE Jazz
REM DATE 2009
REM DISCID 7D108B0B
REM COMMENT "ExactAudioCopy v0.99pb5"
PERFORMER "The Respect Sextet"
TITLE "Sirius Respect"
FILE "01 - Jet Flight.wav" WAVE
TRACK 01 AUDIO
FLAGS DCP
INDEX 01 00:00:00
FILE "02 - Leo.wav" WAVE
TRACK 02 AUDIO
FLAGS DCP
INDEX 01 00:00:00
FILE "03 - Shadow World.wav" WAVE
TRACK 03 AUDIO
FLAGS DCP
INDEX 01 00:00:00
FILE "04 - Dienstagslied.wav" WAVE
TRACK 04 AUDIO
FLAGS DCP
INDEX 01 00:00:00
FILE "05 - Angels and Demons at Play.wav" WAVE
TRACK 05 AUDIO
FLAGS DCP
INDEX 01 00:00:00
FILE "06 - Lights on a Satellite.wav" WAVE
TRACK 06 AUDIO
FLAGS DCP
INDEX 01 00:00:00
FILE "07 - Pisces.wav" WAVE
TRACK 07 AUDIO
FLAGS DCP
INDEX 01 00:00:00
FILE "08 - El is the sound of Joy.wav" WAVE
TRACK 08 AUDIO
FLAGS DCP
INDEX 01 00:00:00
FILE "09 - Set Sail for the Sun.wav" WAVE
TRACK 09 AUDIO
FLAGS DCP
INDEX 01 00:00:00
FILE "10 - Velvet.wav" WAVE
TRACK 10 AUDIO
FLAGS DCP
INDEX 01 00:00:00
FILE "11 - Capricorn,Saturn.wav" WAVE
TRACK 11 AUDIO
FLAGS DCP
INDEX 01 00:00:00
 
Audiochecker
Started at: суббота, 06. 03. 2010. - 21:11.03
11 files found
01 -===- C:\Downloads\Music\Джаз\The Respect Sextet - Sirius Respect - 2009\01 - Jet Flight.flac
Extracted successfully
Conclusion: This track looks like CDDA with probability 100%
Tempfile successfully deleted.
02 -===- C:\Downloads\Music\Джаз\The Respect Sextet - Sirius Respect - 2009\02 - Leo.flac
Extracted successfully
Conclusion: This track looks like CDDA with probability 100%
Tempfile successfully deleted.
03 -===- C:\Downloads\Music\Джаз\The Respect Sextet - Sirius Respect - 2009\03 - Shadow World.flac
Extracted successfully
Conclusion: This track looks like CDDA with probability 100%
Tempfile successfully deleted.
04 -===- C:\Downloads\Music\Джаз\The Respect Sextet - Sirius Respect - 2009\04 - Dienstagslied.flac
Extracted successfully
Conclusion: This track looks like CDDA with probability 100%
Tempfile successfully deleted.
05 -===- C:\Downloads\Music\Джаз\The Respect Sextet - Sirius Respect - 2009\05 - Angels and Demons at Play.flac
Extracted successfully
Conclusion: This track looks like CDDA with probability 100%
Tempfile successfully deleted.
06 -===- C:\Downloads\Music\Джаз\The Respect Sextet - Sirius Respect - 2009\06 - Lights on a Satellite.flac
Extracted successfully
Conclusion: This track looks like CDDA with probability 99%
Tempfile successfully deleted.
07 -===- C:\Downloads\Music\Джаз\The Respect Sextet - Sirius Respect - 2009\07 - Pisces.flac
Extracted successfully
Conclusion: This track looks like CDDA with probability 99%
Tempfile successfully deleted.
08 -===- C:\Downloads\Music\Джаз\The Respect Sextet - Sirius Respect - 2009\08 - El is the sound of Joy.flac
Extracted successfully
Conclusion: This track looks like CDDA with probability 99%
Tempfile successfully deleted.
09 -===- C:\Downloads\Music\Джаз\The Respect Sextet - Sirius Respect - 2009\09 - Set Sail for the Sun.flac
Extracted successfully
Conclusion: This track looks like CDDA with probability 100%
Tempfile successfully deleted.
10 -===- C:\Downloads\Music\Джаз\The Respect Sextet - Sirius Respect - 2009\10 - Velvet.flac
Extracted successfully
Conclusion: This track looks like CDDA with probability 100%
Tempfile successfully deleted.
11 -===- C:\Downloads\Music\Джаз\The Respect Sextet - Sirius Respect - 2009\11 - Capricorn,Saturn.flac
Extracted successfully
Conclusion: This track looks like CDDA with probability 100%
Tempfile successfully deleted.
Finished at: суббота, 06. 03. 2010. - 21:26.46 (operation time: 0:15.43)

Eli Asher: trumpet, slide trumpet, melodica, percussion
James Hirschfeld: trombone, tambourine
Josh Rutner: tenor saxophone, bass clarinet, melodica, radio, percussion, trombone
Red Wierenga: piano, keyboards, redspectronics, percussion
Malcolm Kirby, Matt Clohesy: bass
Ted Poor: drums, percussion
По всем вопросам пишите личное сообщение пользователю M0p94ok.
19:35
242
Нет комментариев. Ваш будет первым!