Вы используете незарегистрированную версию компонента "Вкладки"!

Поиск

(Free improvisation) Pandelis Karayorgis Trio - Heart And Sack - 1999, FLAC (tracks+.cue), lossless

(Free improvisation) Pandelis Karayorgis Trio - Heart And Sack - 1999, FLAC (tracks+.cue), lossless
Треклист:
Pandelis Karayorgis Trio - Heart And Sack
Жанр: Free improvisation
Страна-производитель диска: England
Год издания: 1999
Издатель (лейбл): Leo Lab
Номер по каталогу: CD 048
Аудиокодек: FLAC (*.flac)
Тип рипа: tracks+.cue
Битрейт аудио: lossless
Продолжительность: 51 min.
Источник (релизер): собственный рип с оригинального диска
Наличие сканов в содержимом раздачи: да
Треклист:
01. Lautir 6:02
02. What Did I Just Say? 7:08
03. Miss Ann 2:47
04. How Daisies Jiggle 5:23
05. Straight Blues 6:01
06. Frustration 2:52
07. I Heard Things 6:15
08. Half Tilt 5:33
09. Corpus Delict 4:41
10. Heart And Sack 4:04
 
Лог создания рипа
Exact Audio Copy V1.0 beta 3 from 29. August 2011
EAC extraction logfile from 17. April 2013, 22:41
Pandelis Karayorgis Trio / Heart And Sack
Used drive : TSSTcorpCDDVDW SH-S222A Adapter: 1 ID: 0
Read mode : Secure
Utilize accurate stream : Yes
Defeat audio cache : Yes
Make use of C2 pointers : No
Read offset correction : 6
Overread into Lead-In and Lead-Out : No
Fill up missing offset samples with silence : Yes
Delete leading and trailing silent blocks : No
Null samples used in CRC calculations : Yes
Used interface : Native Win32 interface for Win NT & 2000
Gap handling : Appended to previous track
Used output format : User Defined Encoder
Selected bitrate : 1024 kBit/s
Quality : High
Add ID3 tag : No
Command line compressor : C:\Tool\CD\EAC10\FLAC\FLAC.EXE
Additional command line options : -8 -V -T "ARTIST=%artist%" -T "TITLE=%title%" -T "ALBUM=%albumtitle%" -T "DATE=%year%" -T "TRACKNUMBER=%tracknr%" -T "GENRE=%genre%" -T "PERFORMER=%albuminterpret%" -T "COMPOSER=%composer%" %haslyrics%--tag-from-file=LYRICS="%lyricsfile%"%haslyrics% -T "ALBUMARTIST=%albumartist%" -T "ALBUM ARTIST=%albumartist%" -T "DISCNUMBER=%cdnumber%" -T "TOTALDISCS=%totalcds%" -T "TOTALTRACKS=%numtracks%" -T "COMMENT=EAC V1.0 beta 3, Secure Mode, Test & Copy, AccurateRip, FLAC -8" %source% -o %dest%
TOC of the extracted CD
Track | Start | Length | Start sector | End sector
---------------------------------------------------------
1 | 0:00.00 | 6:02.70 | 0 | 27219
2 | 6:02.70 | 7:08.55 | 27220 | 59374
3 | 13:11.50 | 2:47.72 | 59375 | 71971
4 | 15:59.47 | 5:23.15 | 71972 | 96211
5 | 21:22.62 | 6:01.10 | 96212 | 123296
6 | 27:23.72 | 2:52.53 | 123297 | 136249
7 | 30:16.50 | 6:15.45 | 136250 | 164419
8 | 36:32.20 | 5:33.17 | 164420 | 189411
9 | 42:05.37 | 4:41.30 | 189412 | 210516
10 | 46:46.67 | 4:04.13 | 210517 | 228829
Track 1
Filename C:\! BTM\UL\Pandelis Karayorgis Trio - Heart And Sack (1998) [FLAC]\01 - Lautir.wav
Pre-gap length 0:00:02.00
Peak level 96.1 %
Extraction speed 3.1 X
Track quality 100.0 %
Test CRC DC5458F5
Copy CRC DC5458F5
Accurately ripped (confidence 2) [97462C67] (AR v1)
Copy OK
Track 2
Filename C:\! BTM\UL\Pandelis Karayorgis Trio - Heart And Sack (1998) [FLAC]\02 - What Did I Just Say.wav
Pre-gap length 0:00:01.63
Peak level 95.2 %
Extraction speed 3.2 X
Track quality 100.0 %
Test CRC 2D789113
Copy CRC 2D789113
Accurately ripped (confidence 2) [50F34DE9] (AR v1)
Copy OK
Track 3
Filename C:\! BTM\UL\Pandelis Karayorgis Trio - Heart And Sack (1998) [FLAC]\03 - Miss Ann.wav
Pre-gap length 0:00:03.45
Peak level 94.9 %
Extraction speed 1.8 X
Track quality 99.9 %
Test CRC E3927586
Copy CRC E3927586
Accurately ripped (confidence 2) [2927776B] (AR v1)
Copy OK
Track 4
Filename C:\! BTM\UL\Pandelis Karayorgis Trio - Heart And Sack (1998) [FLAC]\04 - How Daisies Jiggle.wav
Pre-gap length 0:00:02.20
Peak level 87.2 %
Extraction speed 2.5 X
Track quality 100.0 %
Test CRC 029E6D38
Copy CRC 029E6D38
Accurately ripped (confidence 2) [4D0145E0] (AR v1)
Copy OK
Track 5
Filename C:\! BTM\UL\Pandelis Karayorgis Trio - Heart And Sack (1998) [FLAC]\05 - Straight Blues.wav
Pre-gap length 0:00:02.52
Peak level 96.1 %
Extraction speed 2.5 X
Track quality 100.0 %
Test CRC 4BD87F5A
Copy CRC 4BD87F5A
Accurately ripped (confidence 2) [8F68C227] (AR v1)
Copy OK
Track 6
Filename C:\! BTM\UL\Pandelis Karayorgis Trio - Heart And Sack (1998) [FLAC]\06 - Frustration.wav
Pre-gap length 0:00:01.35
Peak level 96.1 %
Extraction speed 2.3 X
Track quality 100.0 %
Test CRC 6C75296F
Copy CRC 6C75296F
Accurately ripped (confidence 2) [09223DD2] (AR v1)
Copy OK
Track 7
Filename C:\! BTM\UL\Pandelis Karayorgis Trio - Heart And Sack (1998) [FLAC]\07 - I Heard Things.wav
Pre-gap length 0:00:02.48
Peak level 96.1 %
Extraction speed 2.5 X
Track quality 100.0 %
Test CRC A8B654F2
Copy CRC A8B654F2
Accurately ripped (confidence 2) [3FBAE11B] (AR v1)
Copy OK
Track 8
Filename C:\! BTM\UL\Pandelis Karayorgis Trio - Heart And Sack (1998) [FLAC]\08 - Half Tilt.wav
Pre-gap length 0:00:02.65
Peak level 93.4 %
Extraction speed 2.5 X
Track quality 100.0 %
Test CRC 50D41868
Copy CRC 50D41868
Accurately ripped (confidence 2) [26F405FB] (AR v1)
Copy OK
Track 9
Filename C:\! BTM\UL\Pandelis Karayorgis Trio - Heart And Sack (1998) [FLAC]\09 - Corpus Delicti.wav
Pre-gap length 0:00:01.42
Peak level 93.3 %
Extraction speed 2.4 X
Track quality 100.0 %
Test CRC 784F37F7
Copy CRC 784F37F7
Accurately ripped (confidence 2) [6FAF175C] (AR v1)
Copy OK
Track 10
Filename C:\! BTM\UL\Pandelis Karayorgis Trio - Heart And Sack (1998) [FLAC]\10 - Heart And Sack.wav
Pre-gap length 0:00:01.60
Peak level 91.3 %
Extraction speed 2.3 X
Track quality 100.0 %
Test CRC 4ECB7D2E
Copy CRC 4ECB7D2E
Accurately ripped (confidence 2) [BEA06D72] (AR v1)
Copy OK
All tracks accurately ripped
No errors occurred
End of status report
---- CUETools DB Plugin V2.1.3
[CTDB TOCID: IuNohruAywjZHaPo.98C7y_0xJA-] found, Submit result: IuNohruAywjZHaPo.98C7y_0xJA- has been confirmed
[9df9d4ed] (2/2) Accurately ripped
==== Log checksum 8662DB02F63B381DD1FE4DEB794E1E918BB81680AFB2061B38ADF100A361CCAB ====
 
Содержание индексной карты (.CUE)
REM GENRE Jazz
REM DATE 1998
REM DISCID 950BEB0A
REM COMMENT "ExactAudioCopy v1.0b3"
PERFORMER "Pandelis Karayorgis Trio"
TITLE "Heart And Sack"
FILE "01 - Lautir.wav" WAVE
TRACK 01 AUDIO
TITLE "Lautir"
PERFORMER "Pandelis Karayorgis Trio"
INDEX 01 00:00:00
TRACK 02 AUDIO
TITLE "What Did I Just Say?"
PERFORMER "Pandelis Karayorgis Trio"
INDEX 00 06:01:07
FILE "02 - What Did I Just Say.wav" WAVE
INDEX 01 00:00:00
TRACK 03 AUDIO
TITLE "Miss Ann"
PERFORMER "Pandelis Karayorgis Trio"
INDEX 00 07:05:10
FILE "03 - Miss Ann.wav" WAVE
INDEX 01 00:00:00
TRACK 04 AUDIO
TITLE "How Daisies Jiggle"
PERFORMER "Pandelis Karayorgis Trio"
INDEX 00 02:45:52
FILE "04 - How Daisies Jiggle.wav" WAVE
INDEX 01 00:00:00
TRACK 05 AUDIO
TITLE "Straight Blues"
PERFORMER "Pandelis Karayorgis Trio"
INDEX 00 05:20:38
FILE "05 - Straight Blues.wav" WAVE
INDEX 01 00:00:00
TRACK 06 AUDIO
TITLE "Frustration"
PERFORMER "Pandelis Karayorgis Trio"
INDEX 00 05:59:50
FILE "06 - Frustration.wav" WAVE
INDEX 01 00:00:00
TRACK 07 AUDIO
TITLE "I Heard Things"
PERFORMER "Pandelis Karayorgis Trio"
INDEX 00 02:50:05
FILE "07 - I Heard Things.wav" WAVE
INDEX 01 00:00:00
TRACK 08 AUDIO
TITLE "Half Tilt"
PERFORMER "Pandelis Karayorgis Trio"
INDEX 00 06:12:55
FILE "08 - Half Tilt.wav" WAVE
INDEX 01 00:00:00
TRACK 09 AUDIO
TITLE "Corpus Delicti"
PERFORMER "Pandelis Karayorgis Trio"
INDEX 00 05:31:50
FILE "09 - Corpus Delicti.wav" WAVE
INDEX 01 00:00:00
TRACK 10 AUDIO
TITLE "Heart And Sack"
PERFORMER "Pandelis Karayorgis Trio"
INDEX 00 04:39:45
FILE "10 - Heart And Sack.wav" WAVE
INDEX 01 00:00:00
Доп. информация:
Recorded on 24 and 25 April 1998
 
Об альбоме (Art Lange / Pulse)
A key figure in Boston's under-40 generation of adventurous improvisers, pianist Karayorgis has released several albums displaying a novel renovation of concepts developed by Lennie Tristano and Thelonious Monk. Monk haunts Heart and Sack at times too, but this trio (Nate McBride on bass and drummer Randy Peterson) has its own identity, based upon tense, consistently shifting rhythmic accents, so that the music surges ahead and eases back, or swings with an off-kilter lilt.
Be warned, this music doesn't reveal all its secrets on first hearing.
 
Об альбоме (Robert Spencer / aaj)
This trio has found something new to say, and new ways to say it, in the well-traveled territory of the piano trio. This is an excellent disc, highly recommended.
 
Состав
Nate McBride - bass
Randy Peterson - drums
Pandelis Karayorgis - piano
Any questions -> support@pro-jazz.com. По всем вопросам пишите -> support@pro-jazz.com
13:40
140
Нет комментариев. Ваш будет первым!