Вы используете незарегистрированную версию компонента "Вкладки"!

Поиск

(Free Improvisation) Pandelis Karayorgis - Mat Maneri - Lift & Poise - 12 Improvised Movements - 1998, FLAC (tracks+.cue), lossless

(Free Improvisation) Pandelis Karayorgis - Mat Maneri - Lift & Poise - 12 Improvised Movements - 1998, FLAC (tracks+.cue), lossless
Треклист:
Pandelis Karayorgis - Mat Maneri - Lift & Poise - 12 Improvised Movements
Жанр: Free Improvisation
Страна-производитель диска: England
Год издания: 1998
Издатель (лейбл): Leo Lab
Номер по каталогу: LEO LAB CD 041
Аудиокодек: FLAC (*.flac)
Тип рипа: tracks+.cue
Битрейт аудио: lossless
Продолжительность: 56 min.
Источник (релизер): собственный рип с оригинального диска
Наличие сканов в содержимом раздачи: да
Треклист:
01. Apollo I 4:37
02. In This Language 5:16
03. Apollo II 1:21
04. Rotation 3:48
05. Lift & Poise 5:10
06. Twomblying I 3:42
07. Twomblying II 6:02
08. Aspirates 6:18
09. Apollo III 3:26
10. Saying Love 3:49
11. Silent Dog 6:03
12. Submerged Song 5:32
 
Лог создания рипа
Exact Audio Copy V1.0 beta 3 from 29. August 2011
EAC extraction logfile from 17. April 2013, 21:32
Pandelis Karayorgis - Mat Maneri / Lift & Poise
Used drive : TSSTcorpCDDVDW SH-S222A Adapter: 1 ID: 0
Read mode : Secure
Utilize accurate stream : Yes
Defeat audio cache : Yes
Make use of C2 pointers : No
Read offset correction : 6
Overread into Lead-In and Lead-Out : No
Fill up missing offset samples with silence : Yes
Delete leading and trailing silent blocks : No
Null samples used in CRC calculations : Yes
Used interface : Native Win32 interface for Win NT & 2000
Gap handling : Appended to previous track
Used output format : User Defined Encoder
Selected bitrate : 1024 kBit/s
Quality : High
Add ID3 tag : No
Command line compressor : C:\Tool\CD\EAC10\FLAC\FLAC.EXE
Additional command line options : -8 -V -T "ARTIST=%artist%" -T "TITLE=%title%" -T "ALBUM=%albumtitle%" -T "DATE=%year%" -T "TRACKNUMBER=%tracknr%" -T "GENRE=%genre%" -T "PERFORMER=%albuminterpret%" -T "COMPOSER=%composer%" %haslyrics%--tag-from-file=LYRICS="%lyricsfile%"%haslyrics% -T "ALBUMARTIST=%albumartist%" -T "ALBUM ARTIST=%albumartist%" -T "DISCNUMBER=%cdnumber%" -T "TOTALDISCS=%totalcds%" -T "TOTALTRACKS=%numtracks%" -T "COMMENT=EAC V1.0 beta 3, Secure Mode, Test & Copy, AccurateRip, FLAC -8" %source% -o %dest%
TOC of the extracted CD
Track | Start | Length | Start sector | End sector
---------------------------------------------------------
1 | 0:00.00 | 4:37.47 | 0 | 20821
2 | 4:37.47 | 5:16.03 | 20822 | 44524
3 | 9:53.50 | 1:21.62 | 44525 | 50661
4 | 11:15.37 | 3:48.40 | 50662 | 67801
5 | 15:04.02 | 5:10.68 | 67802 | 91119
6 | 20:14.70 | 3:42.37 | 91120 | 107806
7 | 23:57.32 | 6:02.53 | 107807 | 135009
8 | 30:00.10 | 6:18.00 | 135010 | 163359
9 | 36:18.10 | 3:26.32 | 163360 | 178841
10 | 39:44.42 | 3:49.28 | 178842 | 196044
11 | 43:33.70 | 6:03.15 | 196045 | 223284
12 | 49:37.10 | 5:32.50 | 223285 | 248234
Track 1
Filename C:\! BTM\UL\Pandelis Karayorgis - Mat Maneri - Lift & Poise (1998) [FLAC]\01 - Apollo I.wav
Pre-gap length 0:00:02.00
Peak level 76.7 %
Extraction speed 3.0 X
Track quality 100.0 %
Test CRC 8690D795
Copy CRC 8690D795
Accurately ripped (confidence 1) [2A986CFC] (AR v1)
Copy OK
Track 2
Filename C:\! BTM\UL\Pandelis Karayorgis - Mat Maneri - Lift & Poise (1998) [FLAC]\02 - In this Language.wav
Peak level 83.5 %
Extraction speed 2.2 X
Track quality 99.9 %
Test CRC 292DC576
Copy CRC 292DC576
Accurately ripped (confidence 1) [B84CC537] (AR v1)
Copy OK
Track 3
Filename C:\! BTM\UL\Pandelis Karayorgis - Mat Maneri - Lift & Poise (1998) [FLAC]\03 - Apollo II.wav
Pre-gap length 0:00:02.03
Peak level 48.3 %
Extraction speed 1.8 X
Track quality 100.0 %
Test CRC DED076C4
Copy CRC DED076C4
Accurately ripped (confidence 1) [4ED6AE0D] (AR v1)
Copy OK
Track 4
Filename C:\! BTM\UL\Pandelis Karayorgis - Mat Maneri - Lift & Poise (1998) [FLAC]\04 - Rotation.wav
Pre-gap length 0:00:01.52
Peak level 85.0 %
Extraction speed 2.3 X
Track quality 100.0 %
Test CRC C5BF6A37
Copy CRC C5BF6A37
Accurately ripped (confidence 1) [C825AD88] (AR v1)
Copy OK
Track 5
Filename C:\! BTM\UL\Pandelis Karayorgis - Mat Maneri - Lift & Poise (1998) [FLAC]\05 - Lift & Poise.wav
Pre-gap length 0:00:01.40
Peak level 57.6 %
Extraction speed 2.5 X
Track quality 100.0 %
Test CRC 307C03F7
Copy CRC 307C03F7
Accurately ripped (confidence 1) [DECD4300] (AR v1)
Copy OK
Track 6
Filename C:\! BTM\UL\Pandelis Karayorgis - Mat Maneri - Lift & Poise (1998) [FLAC]\06 - Twomblying I.wav
Peak level 69.2 %
Extraction speed 2.3 X
Track quality 100.0 %
Test CRC C933CD5D
Copy CRC C933CD5D
Accurately ripped (confidence 1) [7EF6BCB1] (AR v1)
Copy OK
Track 7
Filename C:\! BTM\UL\Pandelis Karayorgis - Mat Maneri - Lift & Poise (1998) [FLAC]\07 - Twomblying II.wav
Peak level 58.5 %
Extraction speed 2.5 X
Track quality 100.0 %
Test CRC B14E8721
Copy CRC B14E8721
Accurately ripped (confidence 1) [365C1C40] (AR v1)
Copy OK
Track 8
Filename C:\! BTM\UL\Pandelis Karayorgis - Mat Maneri - Lift & Poise (1998) [FLAC]\08 - Aspirates.wav
Pre-gap length 0:00:01.65
Peak level 93.2 %
Extraction speed 2.4 X
Track quality 100.0 %
Test CRC 84E1323B
Copy CRC 84E1323B
Accurately ripped (confidence 1) [B085F4E2] (AR v1)
Copy OK
Track 9
Filename C:\! BTM\UL\Pandelis Karayorgis - Mat Maneri - Lift & Poise (1998) [FLAC]\09 - Apollo III.wav
Pre-gap length 0:00:01.28
Peak level 41.9 %
Extraction speed 2.3 X
Track quality 100.0 %
Test CRC 65B73288
Copy CRC 65B73288
Accurately ripped (confidence 1) [6E1CFE04] (AR v1)
Copy OK
Track 10
Filename C:\! BTM\UL\Pandelis Karayorgis - Mat Maneri - Lift & Poise (1998) [FLAC]\10 - Saying Love.wav
Pre-gap length 0:00:02.55
Peak level 83.0 %
Extraction speed 2.0 X
Track quality 99.9 %
Test CRC 1FC0F641
Copy CRC 1FC0F641
Accurately ripped (confidence 1) [84928176] (AR v1)
Copy OK
Track 11
Filename C:\! BTM\UL\Pandelis Karayorgis - Mat Maneri - Lift & Poise (1998) [FLAC]\11 - Silent Dog.wav
Peak level 40.6 %
Extraction speed 2.2 X
Track quality 99.9 %
Test CRC CB0E327A
Copy CRC CB0E327A
Accurately ripped (confidence 1) [E4E9F0BD] (AR v1)
Copy OK
Track 12
Filename C:\! BTM\UL\Pandelis Karayorgis - Mat Maneri - Lift & Poise (1998) [FLAC]\12 - Submerged Song.wav
Peak level 98.7 %
Extraction speed 2.0 X
Track quality 99.9 %
Test CRC 54C6EBE0
Copy CRC 54C6EBE0
Accurately ripped (confidence 1) [6FB1F568] (AR v1)
Copy OK
All tracks accurately ripped
No errors occurred
End of status report
---- CUETools DB Plugin V2.1.3
[CTDB TOCID: Lo4x2.fNwe0sCFxcp46HsoPSK2Q-] disk not present in database, Submit result: Lo4x2.fNwe0sCFxcp46HsoPSK2Q- has been uploaded
==== Log checksum 85B0A4C0D49CB91B433DBC16B0E3F80F2FF18C5EFEA89A6FC85BA8059E7047CD ====
 
Содержание индексной карты (.CUE)
REM GENRE Jazz
REM DATE 1998
REM DISCID B70CED0C
REM COMMENT "ExactAudioCopy v1.0b3"
PERFORMER "Pandelis Karayorgis - Mat Maneri"
TITLE "Lift & Poise"
FILE "01 - Apollo I.wav" WAVE
TRACK 01 AUDIO
TITLE "Apollo I"
PERFORMER "Pandelis Karayorgis - Mat Maneri"
INDEX 01 00:00:00
FILE "02 - In this Language.wav" WAVE
TRACK 02 AUDIO
TITLE "In this Language"
PERFORMER "Pandelis Karayorgis - Mat Maneri"
INDEX 01 00:00:00
TRACK 03 AUDIO
TITLE "Apollo II"
PERFORMER "Pandelis Karayorgis - Mat Maneri"
INDEX 00 05:14:00
FILE "03 - Apollo II.wav" WAVE
INDEX 01 00:00:00
TRACK 04 AUDIO
TITLE "Rotation"
PERFORMER "Pandelis Karayorgis - Mat Maneri"
INDEX 00 01:20:10
FILE "04 - Rotation.wav" WAVE
INDEX 01 00:00:00
TRACK 05 AUDIO
TITLE "Lift & Poise"
PERFORMER "Pandelis Karayorgis - Mat Maneri"
INDEX 00 03:47:00
FILE "05 - Lift & Poise.wav" WAVE
INDEX 01 00:00:00
FILE "06 - Twomblying I.wav" WAVE
TRACK 06 AUDIO
TITLE "Twomblying I"
PERFORMER "Pandelis Karayorgis - Mat Maneri"
INDEX 01 00:00:00
FILE "07 - Twomblying II.wav" WAVE
TRACK 07 AUDIO
TITLE "Twomblying II"
PERFORMER "Pandelis Karayorgis - Mat Maneri"
INDEX 01 00:00:00
TRACK 08 AUDIO
TITLE "Aspirates"
PERFORMER "Pandelis Karayorgis - Mat Maneri"
INDEX 00 06:00:63
FILE "08 - Aspirates.wav" WAVE
INDEX 01 00:00:00
TRACK 09 AUDIO
TITLE "Apollo III"
PERFORMER "Pandelis Karayorgis - Mat Maneri"
INDEX 00 06:16:47
FILE "09 - Apollo III.wav" WAVE
INDEX 01 00:00:00
TRACK 10 AUDIO
TITLE "Saying Love"
PERFORMER "Pandelis Karayorgis - Mat Maneri"
INDEX 00 03:23:52
FILE "10 - Saying Love.wav" WAVE
INDEX 01 00:00:00
FILE "11 - Silent Dog.wav" WAVE
TRACK 11 AUDIO
TITLE "Silent Dog"
PERFORMER "Pandelis Karayorgis - Mat Maneri"
INDEX 01 00:00:00
FILE "12 - Submerged Song.wav" WAVE
TRACK 12 AUDIO
TITLE "Submerged Song"
PERFORMER "Pandelis Karayorgis - Mat Maneri"
INDEX 01 00:00:00
Доп. информация:
Recorded on December 1996 and January 1997 in Cambridge, Massachusetts
 
Об альбоме (Stuart Broomer / Cadence)
It's remarkable how little these musicians were heard on disc just a couple of years ago, and their new presence is a significant and positive shift in the landscape of American improvisation highly recommended.
 
Об альбоме (Ed Hazell / The Boston Phoenix)
On the album's three Apollo duets, Karayorgis and Maneri create intimate music, out of small, furtive gestures, and they display an uncanny ability to finish each other's thoughts. Through these quiet call-and-response exchanges, they move in quirky degrees to inevitable, if surreal, conclusions.
 
Об альбоме (Gerard Rouy / Jazz magazine)
Lift & Poise is a place of poetry, of tension and refinement that anticipates the liberties of the century to come.
 
Об альбоме (Walter Horn / Cadence)
There are many, many highlights to this disc, and it's difficult to single out particular moments, because the contiguous sections are often just as nice. The whole endeavor is wonderful.
 
Состав
Pandelis Karayorgis - piano (except 07)
Mat Maneri - violin (except 06)
John Lockwood - bass (tracks: 04, 08, 11)
Joe Maneri - clarinet (tracks: 02, 10)
Any questions -> support@pro-jazz.com. По всем вопросам пишите -> support@pro-jazz.com
13:40
189
Нет комментариев. Ваш будет первым!