Вы используете незарегистрированную версию компонента "Вкладки"!

Поиск

(Free improvisation) Pandelis Karayorgis - Seventeen Pieces - 2004, FLAC (tracks+.cue), lossless

(Free improvisation) Pandelis Karayorgis - Seventeen Pieces - 2004, FLAC (tracks+.cue), lossless
Треклист:
Pandelis Karayorgis - Seventeen Pieces
Жанр: Free improvisation
Страна-производитель диска: England
Год издания: 2004
Издатель (лейбл): Leo Records
Номер по каталогу: CD LR 417
Аудиокодек: FLAC (*.flac)
Тип рипа: tracks+.cue
Битрейт аудио: lossless
Продолжительность: 61 min.
Источник (релизер): собственный рип с оригинального диска
Наличие сканов в содержимом раздачи: да
Треклист:
01. In The Cracks Of Four 1:46
02. Straight Blues 4:51
03. Ugly Beauty 4:02
04. Criss Cross 2:26
05. Baby 3:53
06. Background Music 2:34
07. Blood Ballad 3:32
08. Disambiguation 4:14
09. Home 3:18
10. Super Bronze 3:14
11. Centennial 4:50
12. Gazzelloni 2:55
13. Prelude To A Kiss 2:51
14. Fink Sink Tink 4:41
15. I Don't Stand A Ghost Of A Chance With You 3:52
16. Just You, Just Me 3:04
17. Summer 4:27
 
Лог создания рипа
Exact Audio Copy V1.0 beta 3 from 29. August 2011
EAC extraction logfile from 28. April 2013, 0:56
Pandelis Karayorgis / Seventeen Pieces
Used drive : TSSTcorpCDDVDW SH-S222A Adapter: 1 ID: 0
Read mode : Secure
Utilize accurate stream : Yes
Defeat audio cache : Yes
Make use of C2 pointers : No
Read offset correction : 6
Overread into Lead-In and Lead-Out : No
Fill up missing offset samples with silence : Yes
Delete leading and trailing silent blocks : No
Null samples used in CRC calculations : Yes
Used interface : Native Win32 interface for Win NT & 2000
Gap handling : Appended to previous track
Used output format : User Defined Encoder
Selected bitrate : 1024 kBit/s
Quality : High
Add ID3 tag : No
Command line compressor : C:\Tool\CD\EAC10\FLAC\FLAC.EXE
Additional command line options : -8 -V -T "ARTIST=%artist%" -T "TITLE=%title%" -T "ALBUM=%albumtitle%" -T "DATE=%year%" -T "TRACKNUMBER=%tracknr%" -T "GENRE=%genre%" -T "PERFORMER=%albuminterpret%" -T "COMPOSER=%composer%" %haslyrics%--tag-from-file=LYRICS="%lyricsfile%"%haslyrics% -T "ALBUMARTIST=%albumartist%" -T "ALBUM ARTIST=%albumartist%" -T "DISCNUMBER=%cdnumber%" -T "TOTALDISCS=%totalcds%" -T "TOTALTRACKS=%numtracks%" -T "COMMENT=EAC V1.0 beta 3, Secure Mode, Test & Copy, AccurateRip, FLAC -8" %source% -o %dest%
TOC of the extracted CD
Track | Start | Length | Start sector | End sector
---------------------------------------------------------
1 | 0:00.00 | 1:46.63 | 0 | 8012
2 | 1:46.63 | 4:51.23 | 8013 | 29860
3 | 6:38.11 | 4:02.02 | 29861 | 48012
4 | 10:40.13 | 2:26.53 | 48013 | 59015
5 | 13:06.66 | 3:53.60 | 59016 | 76550
6 | 17:00.51 | 2:34.25 | 76551 | 88125
7 | 19:35.01 | 3:32.48 | 88126 | 104073
8 | 23:07.49 | 4:14.00 | 104074 | 123123
9 | 27:21.49 | 3:18.37 | 123124 | 138010
10 | 30:40.11 | 3:14.08 | 138011 | 152568
11 | 33:54.19 | 4:50.30 | 152569 | 174348
12 | 38:44.49 | 2:55.36 | 174349 | 187509
13 | 41:40.10 | 2:51.40 | 187510 | 200374
14 | 44:31.50 | 4:41.15 | 200375 | 221464
15 | 49:12.65 | 3:52.40 | 221465 | 238904
16 | 53:05.30 | 3:04.33 | 238905 | 252737
17 | 56:09.63 | 4:27.14 | 252738 | 272776
Track 1
Filename C:\! BTM\UL\Pandelis Karayorgis - Seventeen Pieces (2004) [FLAC]\01 - In The Cracks Of Four.wav
Pre-gap length 0:00:02.00
Peak level 69.9 %
Extraction speed 1.7 X
Track quality 100.0 %
Test CRC C23AA174
Copy CRC C23AA174
Accurately ripped (confidence 1) [4304BAF8] (AR v2)
Copy OK
Track 2
Filename C:\! BTM\UL\Pandelis Karayorgis - Seventeen Pieces (2004) [FLAC]\02 - Straight Blues.wav
Pre-gap length 0:00:03.28
Peak level 52.7 %
Extraction speed 2.1 X
Track quality 100.0 %
Test CRC 5261CD37
Copy CRC 5261CD37
Accurately ripped (confidence 1) [A0F314AB] (AR v2)
Copy OK
Track 3
Filename C:\! BTM\UL\Pandelis Karayorgis - Seventeen Pieces (2004) [FLAC]\03 - Ugly Beauty.wav
Pre-gap length 0:00:04.00
Peak level 40.9 %
Extraction speed 1.8 X
Track quality 99.9 %
Test CRC CD8C82A4
Copy CRC CD8C82A4
Accurately ripped (confidence 1) [E824DA25] (AR v2)
Copy OK
Track 4
Filename C:\! BTM\UL\Pandelis Karayorgis - Seventeen Pieces (2004) [FLAC]\04 - Criss Cross.wav
Pre-gap length 0:00:04.30
Peak level 75.8 %
Extraction speed 1.6 X
Track quality 99.9 %
Test CRC 2965A7C9
Copy CRC 2965A7C9
Accurately ripped (confidence 1) [2C1F42E0] (AR v2)
Copy OK
Track 5
Filename C:\! BTM\UL\Pandelis Karayorgis - Seventeen Pieces (2004) [FLAC]\05 - Baby.wav
Pre-gap length 0:00:04.26
Peak level 52.2 %
Extraction speed 2.1 X
Track quality 100.0 %
Test CRC B2741915
Copy CRC B2741915
Accurately ripped (confidence 1) [B2C899A0] (AR v2)
Copy OK
Track 6
Filename C:\! BTM\UL\Pandelis Karayorgis - Seventeen Pieces (2004) [FLAC]\06 - Background Music.wav
Pre-gap length 0:00:04.66
Peak level 59.0 %
Extraction speed 1.6 X
Track quality 99.9 %
Test CRC 0005AAD8
Copy CRC 0005AAD8
Accurately ripped (confidence 1) [895851FD] (AR v2)
Copy OK
Track 7
Filename C:\! BTM\UL\Pandelis Karayorgis - Seventeen Pieces (2004) [FLAC]\07 - Blood Ballad.wav
Pre-gap length 0:00:03.68
Peak level 42.8 %
Extraction speed 2.0 X
Track quality 100.0 %
Test CRC 13865635
Copy CRC 13865635
Accurately ripped (confidence 1) [F245B5B2] (AR v2)
Copy OK
Track 8
Filename C:\! BTM\UL\Pandelis Karayorgis - Seventeen Pieces (2004) [FLAC]\08 - Disambiguation.wav
Pre-gap length 0:00:03.22
Peak level 77.8 %
Extraction speed 2.1 X
Track quality 100.0 %
Test CRC 207D715E
Copy CRC 207D715E
Accurately ripped (confidence 1) [247A9ECC] (AR v2)
Copy OK
Track 9
Filename C:\! BTM\UL\Pandelis Karayorgis - Seventeen Pieces (2004) [FLAC]\09 - Home.wav
Pre-gap length 0:00:04.01
Peak level 56.4 %
Extraction speed 2.0 X
Track quality 100.0 %
Test CRC E403785F
Copy CRC E403785F
Accurately ripped (confidence 1) [087F2910] (AR v2)
Copy OK
Track 10
Filename C:\! BTM\UL\Pandelis Karayorgis - Seventeen Pieces (2004) [FLAC]\10 - Super Bronze.wav
Pre-gap length 0:00:02.39
Peak level 61.4 %
Extraction speed 2.0 X
Track quality 100.0 %
Test CRC 2DCA5AC7
Copy CRC 2DCA5AC7
Accurately ripped (confidence 1) [7B90EDF6] (AR v2)
Copy OK
Track 11
Filename C:\! BTM\UL\Pandelis Karayorgis - Seventeen Pieces (2004) [FLAC]\11 - Centennial.wav
Pre-gap length 0:00:02.41
Peak level 70.2 %
Extraction speed 2.1 X
Track quality 100.0 %
Test CRC 45D20F4F
Copy CRC 45D20F4F
Accurately ripped (confidence 1) [9B224D51] (AR v2)
Copy OK
Track 12
Filename C:\! BTM\UL\Pandelis Karayorgis - Seventeen Pieces (2004) [FLAC]\12 - Gazzelloni.wav
Pre-gap length 0:00:02.64
Peak level 84.8 %
Extraction speed 1.9 X
Track quality 100.0 %
Test CRC FCF06BAA
Copy CRC FCF06BAA
Accurately ripped (confidence 1) [2A827267] (AR v2)
Copy OK
Track 13
Filename C:\! BTM\UL\Pandelis Karayorgis - Seventeen Pieces (2004) [FLAC]\13 - Prelude To A Kiss.wav
Pre-gap length 0:00:03.12
Peak level 73.5 %
Extraction speed 1.9 X
Track quality 100.0 %
Test CRC CABDD55E
Copy CRC CABDD55E
Accurately ripped (confidence 1) [D1760964] (AR v2)
Copy OK
Track 14
Filename C:\! BTM\UL\Pandelis Karayorgis - Seventeen Pieces (2004) [FLAC]\14 - Fink Sink Tink.wav
Pre-gap length 0:00:02.50
Peak level 93.7 %
Extraction speed 1.9 X
Track quality 99.9 %
Test CRC CF2A1D3A
Copy CRC CF2A1D3A
Accurately ripped (confidence 1) [1AE7F4EA] (AR v2)
Copy OK
Track 15
Filename C:\! BTM\UL\Pandelis Karayorgis - Seventeen Pieces (2004) [FLAC]\15 - I Don't Stand A Ghost Of A Chance With You.wav
Pre-gap length 0:00:03.58
Peak level 57.3 %
Extraction speed 2.0 X
Track quality 100.0 %
Test CRC 170BCC85
Copy CRC 170BCC85
Accurately ripped (confidence 1) [85FD4EC9] (AR v2)
Copy OK
Track 16
Filename C:\! BTM\UL\Pandelis Karayorgis - Seventeen Pieces (2004) [FLAC]\16 - Just You, Just Me.wav
Pre-gap length 0:00:02.60
Peak level 80.4 %
Extraction speed 1.9 X
Track quality 100.0 %
Test CRC 806A184E
Copy CRC 806A184E
Accurately ripped (confidence 1) [A2FB8B62] (AR v2)
Copy OK
Track 17
Filename C:\! BTM\UL\Pandelis Karayorgis - Seventeen Pieces (2004) [FLAC]\17 - Summer.wav
Pre-gap length 0:00:04.01
Peak level 43.1 %
Extraction speed 2.0 X
Track quality 100.0 %
Test CRC 2B3DFF60
Copy CRC 2B3DFF60
Cannot be verified as accurate (confidence 1) [33D72DB0], AccurateRip returned [23DD2D7A] (AR v2)
Copy OK
16 track(s) accurately ripped
1 track(s) could not be verified as accurate
Some tracks could not be verified as accurate
No errors occurred
End of status report
---- CUETools DB Plugin V2.1.3
[CTDB TOCID: N7jr29wd_SIRJnuJwrdlDraRGds-] disk not present in database, Submit result: N7jr29wd_SIRJnuJwrdlDraRGds- has been uploaded
==== Log checksum F476BE0A163D2EEDD7B63665F19F6A769A0AAB5352E9629203875760A3DAEEF0 ====
 
Содержание индексной карты (.CUE)
REM GENRE Jazz
REM DATE 2004
REM DISCID E10E3511
REM COMMENT "ExactAudioCopy v1.0b3"
PERFORMER "Pandelis Karayorgis"
TITLE "Seventeen Pieces"
FILE "01 - In The Cracks Of Four.wav" WAVE
TRACK 01 AUDIO
TITLE "In The Cracks Of Four"
PERFORMER "Pandelis Karayorgis"
INDEX 01 00:00:00
TRACK 02 AUDIO
TITLE "Straight Blues"
PERFORMER "Pandelis Karayorgis"
INDEX 00 01:43:35
FILE "02 - Straight Blues.wav" WAVE
INDEX 01 00:00:00
TRACK 03 AUDIO
TITLE "Ugly Beauty"
PERFORMER "Pandelis Karayorgis"
INDEX 00 04:47:23
FILE "03 - Ugly Beauty.wav" WAVE
INDEX 01 00:00:00
TRACK 04 AUDIO
TITLE "Criss Cross"
PERFORMER "Pandelis Karayorgis"
INDEX 00 03:57:47
FILE "04 - Criss Cross.wav" WAVE
INDEX 01 00:00:00
TRACK 05 AUDIO
TITLE "Baby"
PERFORMER "Pandelis Karayorgis"
INDEX 00 02:22:27
FILE "05 - Baby.wav" WAVE
INDEX 01 00:00:00
TRACK 06 AUDIO
TITLE "Background Music"
PERFORMER "Pandelis Karayorgis"
INDEX 00 03:48:69
FILE "06 - Background Music.wav" WAVE
INDEX 01 00:00:00
TRACK 07 AUDIO
TITLE "Blood Ballad"
PERFORMER "Pandelis Karayorgis"
INDEX 00 02:30:32
FILE "07 - Blood Ballad.wav" WAVE
INDEX 01 00:00:00
TRACK 08 AUDIO
TITLE "Disambiguation"
PERFORMER "Pandelis Karayorgis"
INDEX 00 03:29:26
FILE "08 - Disambiguation.wav" WAVE
INDEX 01 00:00:00
TRACK 09 AUDIO
TITLE "Home"
PERFORMER "Pandelis Karayorgis"
INDEX 00 04:09:74
FILE "09 - Home.wav" WAVE
INDEX 01 00:00:00
TRACK 10 AUDIO
TITLE "Super Bronze"
PERFORMER "Pandelis Karayorgis"
INDEX 00 03:15:73
FILE "10 - Super Bronze.wav" WAVE
INDEX 01 00:00:00
TRACK 11 AUDIO
TITLE "Centennial"
PERFORMER "Pandelis Karayorgis"
INDEX 00 03:11:42
FILE "11 - Centennial.wav" WAVE
INDEX 01 00:00:00
TRACK 12 AUDIO
TITLE "Gazzelloni"
PERFORMER "Pandelis Karayorgis"
INDEX 00 04:47:41
FILE "12 - Gazzelloni.wav" WAVE
INDEX 01 00:00:00
TRACK 13 AUDIO
TITLE "Prelude To A Kiss"
PERFORMER "Pandelis Karayorgis"
INDEX 00 02:52:24
FILE "13 - Prelude To A Kiss.wav" WAVE
INDEX 01 00:00:00
TRACK 14 AUDIO
TITLE "Fink Sink Tink"
PERFORMER "Pandelis Karayorgis"
INDEX 00 02:48:65
FILE "14 - Fink Sink Tink.wav" WAVE
INDEX 01 00:00:00
TRACK 15 AUDIO
TITLE "I Don't Stand A Ghost Of A Chance With You"
PERFORMER "Pandelis Karayorgis"
INDEX 00 04:37:32
FILE "15 - I Don't Stand A Ghost Of A Chance With You.wav" WAVE
INDEX 01 00:00:00
TRACK 16 AUDIO
TITLE "Just You, Just Me"
PERFORMER "Pandelis Karayorgis"
INDEX 00 03:49:55
FILE "16 - Just You, Just Me.wav" WAVE
INDEX 01 00:00:00
TRACK 17 AUDIO
TITLE "Summer"
PERFORMER "Pandelis Karayorgis"
INDEX 00 03:00:32
FILE "17 - Summer.wav" WAVE
INDEX 01 00:00:00
Доп. информация:
Recorded on April and June 2004 at WGBH Studios, Boston.
 
Об альбоме (from The Penguin Guide To Jazz Recordings, 8th Edition)
Karayorgis has developed a powerful piano language of his own and this is its definitive statement to date.
 
Об альбоме (Randal McIlroy / Coda)
Like Bley, Karayorgis is a deep listener given to research in motion; intuitive and disciplined, he can be whimsical, even capricious, but he doesn't waste time.
 
Об альбоме (Michael Rosenstein / Cadence Magazine)
Up until now, Karayorgis has proven himself as a thoughtful leader. This recording reveals a new side to his playing, showing him to be an astute solo improviser as well.
 
Об альбоме (David Dupont / One Final Note)
Karayorgis pays tribute to those pioneers before him who trekked into uncharted territory, following their footsteps and blazing new trails of his own.
 
Об альбоме (BLG / Downtown Music Gallery)
This is well-selected program which shows many of Mr Karayorgis' talents as the gifted pianist that he is.
 
Состав
Pandelis Karayorgis - piano
Any questions -> support@pro-jazz.com. По всем вопросам пишите -> support@pro-jazz.com
13:41
149
Нет комментариев. Ваш будет первым!